  0
SECTION
  2
HEADER
  9
$ACADVER
  1
AC1015
  9
$ACADMAINTVER
 70
     6
  9
$DWGCODEPAGE
  3
ANSI_1252
  9
$INSBASE
 10
0.0
 20
0.0
 30
0.0
  9
$EXTMIN
 10
0.0
 20
0.0
 30
0.0
  9
$EXTMAX
 10
594.0000000000002
 20
420.0000000000002
 30
0.0
  9
$LIMMIN
 10
0.0
 20
0.0
  9
$LIMMAX
 10
12.0
 20
9.0
  9
$ORTHOMODE
 70
     0
  9
$REGENMODE
 70
     1
  9
$FILLMODE
 70
     1
  9
$QTEXTMODE
 70
     0
  9
$MIRRTEXT
 70
     1
  9
$LTSCALE
 40
1.0
  9
$ATTMODE
 70
     1
  9
$TEXTSIZE
 40
0.2
  9
$TRACEWID
 40
0.05
  9
$TEXTSTYLE
  7
Standard
  9
$CLAYER
  8
0
  9
$CELTYPE
  6
ByLayer
  9
$CECOLOR
 62
   256
  9
$CELTSCALE
 40
1.0
  9
$DISPSILH
 70
     0
  9
$DIMSCALE
 40
1.0
  9
$DIMASZ
 40
0.18
  9
$DIMEXO
 40
0.0625
  9
$DIMDLI
 40
0.38
  9
$DIMRND
 40
0.0
  9
$DIMDLE
 40
0.0
  9
$DIMEXE
 40
0.18
  9
$DIMTP
 40
0.0
  9
$DIMTM
 40
0.0
  9
$DIMTXT
 40
0.18
  9
$DIMCEN
 40
0.09
  9
$DIMTSZ
 40
0.0
  9
$DIMTOL
 70
     0
  9
$DIMLIM
 70
     0
  9
$DIMTIH
 70
     1
  9
$DIMTOH
 70
     1
  9
$DIMSE1
 70
     0
  9
$DIMSE2
 70
     0
  9
$DIMTAD
 70
     0
  9
$DIMZIN
 70
     0
  9
$DIMBLK
  1

  9
$DIMASO
 70
     1
  9
$DIMSHO
 70
     1
  9
$DIMPOST
  1

  9
$DIMAPOST
  1

  9
$DIMALT
 70
     0
  9
$DIMALTD
 70
     2
  9
$DIMALTF
 40
25.4
  9
$DIMLFAC
 40
1.0
  9
$DIMTOFL
 70
     0
  9
$DIMTVP
 40
0.0
  9
$DIMTIX
 70
     0
  9
$DIMSOXD
 70
     0
  9
$DIMSAH
 70
     0
  9
$DIMBLK1
  1

  9
$DIMBLK2
  1

  9
$DIMSTYLE
  2
Standard
  9
$DIMCLRD
 70
     0
  9
$DIMCLRE
 70
     0
  9
$DIMCLRT
 70
     0
  9
$DIMTFAC
 40
1.0
  9
$DIMGAP
 40
0.09
  9
$DIMJUST
 70
     0
  9
$DIMSD1
 70
     0
  9
$DIMSD2
 70
     0
  9
$DIMTOLJ
 70
     1
  9
$DIMTZIN
 70
     0
  9
$DIMALTZ
 70
     0
  9
$DIMALTTZ
 70
     0
  9
$DIMUPT
 70
     0
  9
$DIMDEC
 70
     4
  9
$DIMTDEC
 70
     4
  9
$DIMALTU
 70
     2
  9
$DIMALTTD
 70
     2
  9
$DIMTXSTY
  7
Standard
  9
$DIMAUNIT
 70
     0
  9
$DIMADEC
 70
     0
  9
$DIMALTRND
 40
0.0
  9
$DIMAZIN
 70
     0
  9
$DIMDSEP
 70
    46
  9
$DIMATFIT
 70
     3
  9
$DIMFRAC
 70
     0
  9
$DIMLDRBLK
  1

  9
$DIMLUNIT
 70
     2
  9
$DIMLWD
 70
    -2
  9
$DIMLWE
 70
    -2
  9
$DIMTMOVE
 70
     0
  9
$LUNITS
 70
     2
  9
$LUPREC
 70
     4
  9
$SKETCHINC
 40
0.1
  9
$FILLETRAD
 40
0.5
  9
$AUNITS
 70
     0
  9
$AUPREC
 70
     0
  9
$MENU
  1
.
  9
$ELEVATION
 40
0.0
  9
$PELEVATION
 40
0.0
  9
$THICKNESS
 40
0.0
  9
$LIMCHECK
 70
     0
  9
$CHAMFERA
 40
0.5
  9
$CHAMFERB
 40
0.5
  9
$CHAMFERC
 40
1.0
  9
$CHAMFERD
 40
0.0
  9
$SKPOLY
 70
     0
  9
$TDCREATE
 40
2456997.611367697
  9
$TDUCREATE
 40
2456997.56970103
  9
$TDUPDATE
 40
2456997.611367882
  9
$TDUUPDATE
 40
2456997.569701215
  9
$TDINDWG
 40
0.0000000116
  9
$TDUSRTIMER
 40
0.0000000116
  9
$USRTIMER
 70
     1
  9
$ANGBASE
 50
0.0
  9
$ANGDIR
 70
     0
  9
$PDMODE
 70
     0
  9
$PDSIZE
 40
0.0
  9
$PLINEWID
 40
0.0
  9
$SPLFRAME
 70
     0
  9
$SPLINETYPE
 70
     6
  9
$SPLINESEGS
 70
     8
  9
$HANDSEED
  5
2EF
  9
$SURFTAB1
 70
     6
  9
$SURFTAB2
 70
     6
  9
$SURFTYPE
 70
     6
  9
$SURFU
 70
     6
  9
$SURFV
 70
     6
  9
$UCSBASE
  2

  9
$UCSNAME
  2

  9
$UCSORG
 10
0.0
 20
0.0
 30
0.0
  9
$UCSXDIR
 10
1.0
 20
0.0
 30
0.0
  9
$UCSYDIR
 10
0.0
 20
1.0
 30
0.0
  9
$UCSORTHOREF
  2

  9
$UCSORTHOVIEW
 70
     0
  9
$UCSORGTOP
 10
0.0
 20
0.0
 30
0.0
  9
$UCSORGBOTTOM
 10
0.0
 20
0.0
 30
0.0
  9
$UCSORGLEFT
 10
0.0
 20
0.0
 30
0.0
  9
$UCSORGRIGHT
 10
0.0
 20
0.0
 30
0.0
  9
$UCSORGFRONT
 10
0.0
 20
0.0
 30
0.0
  9
$UCSORGBACK
 10
0.0
 20
0.0
 30
0.0
  9
$PUCSBASE
  2

  9
$PUCSNAME
  2

  9
$PUCSORG
 10
0.0
 20
0.0
 30
0.0
  9
$PUCSXDIR
 10
1.0
 20
0.0
 30
0.0
  9
$PUCSYDIR
 10
0.0
 20
1.0
 30
0.0
  9
$PUCSORTHOREF
  2

  9
$PUCSORTHOVIEW
 70
     0
  9
$PUCSORGTOP
 10
0.0
 20
0.0
 30
0.0
  9
$PUCSORGBOTTOM
 10
0.0
 20
0.0
 30
0.0
  9
$PUCSORGLEFT
 10
0.0
 20
0.0
 30
0.0
  9
$PUCSORGRIGHT
 10
0.0
 20
0.0
 30
0.0
  9
$PUCSORGFRONT
 10
0.0
 20
0.0
 30
0.0
  9
$PUCSORGBACK
 10
0.0
 20
0.0
 30
0.0
  9
$USERI1
 70
     0
  9
$USERI2
 70
     0
  9
$USERI3
 70
     0
  9
$USERI4
 70
     0
  9
$USERI5
 70
     0
  9
$USERR1
 40
18.1
  9
$USERR2
 40
0.0
  9
$USERR3
 40
0.0
  9
$USERR4
 40
0.0
  9
$USERR5
 40
0.0
  9
$WORLDVIEW
 70
     1
  9
$SHADEDGE
 70
     3
  9
$SHADEDIF
 70
    70
  9
$TILEMODE
 70
     1
  9
$MAXACTVP
 70
    64
  9
$PINSBASE
 10
0.0
 20
0.0
 30
0.0
  9
$PLIMCHECK
 70
     0
  9
$PEXTMIN
 10
1.00000000000000E+20
 20
1.00000000000000E+20
 30
1.00000000000000E+20
  9
$PEXTMAX
 10
-1.00000000000000E+20
 20
-1.00000000000000E+20
 30
-1.00000000000000E+20
  9
$PLIMMIN
 10
0.0
 20
0.0
  9
$PLIMMAX
 10
12.0
 20
9.0
  9
$UNITMODE
 70
     0
  9
$VISRETAIN
 70
     1
  9
$PLINEGEN
 70
     0
  9
$PSLTSCALE
 70
     1
  9
$TREEDEPTH
 70
  3020
  9
$CMLSTYLE
  2
Standard
  9
$CMLJUST
 70
     0
  9
$CMLSCALE
 40
1.0
  9
$PROXYGRAPHICS
 70
     1
  9
$MEASUREMENT
 70
     1
  9
$CELWEIGHT
370
    -1
  9
$ENDCAPS
280
     0
  9
$JOINSTYLE
280
     0
  9
$LWDISPLAY
290
     0
  9
$INSUNITS
 70
     4
  9
$HYPERLINKBASE
  1

  9
$STYLESHEET
  1

  9
$XEDIT
290
     1
  9
$CEPSNTYPE
380
     0
  9
$PSTYLEMODE
290
     1
  9
$FINGERPRINTGUID
  2
{8D1ABCB4-ABB7-4ED8-BCF7-2A8362622C7D}
  9
$VERSIONGUID
  2
{FAEB1C32-E019-11D5-929B-00C0DF256EC4}
  9
$EXTNAMES
290
     1
  9
$PSVPSCALE
 40
0.0
  9
$OLESTARTUP
290
     0
  0
ENDSEC
  0
SECTION
  2
CLASSES
  0
CLASS
  1
ACDBDICTIONARYWDFLT
  2
AcDbDictionaryWithDefault
  3
ObjectDBX Classes
 90
        0
280
     0
281
     0
  0
CLASS
  1
VISUALSTYLE
  2
AcDbVisualStyle
  3
ObjectDBX Classes
 90
     4095
280
     0
281
     0
  0
CLASS
  1
MATERIAL
  2
AcDbMaterial
  3
ObjectDBX Classes
 90
     1153
280
     0
281
     0
  0
CLASS
  1
DICTIONARYVAR
  2
AcDbDictionaryVar
  3
ObjectDBX Classes
 90
        0
280
     0
281
     0
  0
CLASS
  1
ACDBPLACEHOLDER
  2
AcDbPlaceHolder
  3
ObjectDBX Classes
 90
        0
280
     0
281
     0
  0
CLASS
  1
LAYOUT
  2
AcDbLayout
  3
ObjectDBX Classes
 90
        0
280
     0
281
     0
  0
ENDSEC
  0
SECTION
  2
TABLES
  0
TABLE
  2
VPORT
  5
8
330
0
100
AcDbSymbolTable
 70
     1
  0
VPORT
  5
29
330
8
100
AcDbSymbolTableRecord
100
AcDbViewportTableRecord
  2
*Active
 70
     0
 10
0.0
 20
0.0
 11
1.0
 21
1.0
 12
297.0000000000001
 22
210.0000000000001
 13
0.0
 23
0.0
 14
0.5
 24
0.5
 15
0.5
 25
0.5
 16
0.0
 26
0.0
 36
1.0
 17
0.0
 27
0.0
 37
0.0
 40
462.0000000000003
 41
1.60267857142857
 42
50.0
 43
0.0
 44
0.0
 50
0.0
 51
0.0
 71
     0
 72
   100
 73
     1
 74
     3
 75
     0
 76
     0
 77
     0
 78
     0
281
     0
 65
     1
110
0.0
120
0.0
130
0.0
111
1.0
121
0.0
131
0.0
112
0.0
122
1.0
132
0.0
 79
     0
146
0.0
  0
ENDTAB
  0
TABLE
  2
LTYPE
  5
5
330
0
100
AcDbSymbolTable
 70
     8
  0
LTYPE
  5
14
330
5
100
AcDbSymbolTableRecord
100
AcDbLinetypeTableRecord
  2
ByBlock
 70
     0
  3

 72
    65
 73
     0
 40
0.0
  0
LTYPE
  5
15
330
5
100
AcDbSymbolTableRecord
100
AcDbLinetypeTableRecord
  2
ByLayer
 70
     0
  3

 72
    65
 73
     0
 40
0.0
  0
LTYPE
  5
16
330
5
100
AcDbSymbolTableRecord
100
AcDbLinetypeTableRecord
  2
Continuous
 70
     0
  3
Solid line
 72
    65
 73
     0
 40
0.0
  0
LTYPE
  5
3F
330
5
100
AcDbSymbolTableRecord
100
AcDbLinetypeTableRecord
  2
DASHED
 70
     0
  3
Dashed
 72
    65
 73
     2
 40
15.0
 49
7.0
 74
     0
 49
-8.0
 74
     0
  0
LTYPE
  5
40
330
5
100
AcDbSymbolTableRecord
100
AcDbLinetypeTableRecord
  2
DOTTED
 70
     0
  3
Dotted
 72
    65
 73
     2
 40
1.0
 49
0.0
 74
     0
 49
-1.0
 74
     0
  0
LTYPE
  5
41
330
5
100
AcDbSymbolTableRecord
100
AcDbLinetypeTableRecord
  2
DOT_CENTER
 70
     0
  3
Dot_Center
 72
    65
 73
     4
 40
14.0
 49
12.0
 74
     0
 49
-1.0
 74
     0
 49
0.0
 74
     0
 49
-1.0
 74
     0
  0
LTYPE
  5
42
330
5
100
AcDbSymbolTableRecord
100
AcDbLinetypeTableRecord
  2
LONG_DASHED
 70
     0
  3
Long_Dashed
 72
    65
 73
     2
 40
15.0
 49
10.0
 74
     0
 49
-5.0
 74
     0
  0
LTYPE
  5
43
330
5
100
AcDbSymbolTableRecord
100
AcDbLinetypeTableRecord
  2
DASH_CENTER
 70
     0
  3
Dash_Center
 72
    65
 73
     4
 40
14.0
 49
11.0
 74
     0
 49
-1.0
 74
     0
 49
1.0
 74
     0
 49
-1.0
 74
     0
  0
LTYPE
  5
44
330
5
100
AcDbSymbolTableRecord
100
AcDbLinetypeTableRecord
  2
PHANTOM
 70
     0
  3
Phantom
 72
    65
 73
     6
 40
13.0
 49
10.0
 74
     0
 49
-1.0
 74
     0
 49
0.0
 74
     0
 49
-1.0
 74
     0
 49
0.0
 74
     0
 49
-1.0
 74
     0
  0
LTYPE
  5
45
330
5
100
AcDbSymbolTableRecord
100
AcDbLinetypeTableRecord
  2
CENTER_DASH_DASH
 70
     0
  3
Center_Dash_Dash
 72
    65
 73
     6
 40
14.0
 49
9.0
 74
     0
 49
-1.0
 74
     0
 49
1.0
 74
     0
 49
-1.0
 74
     0
 49
1.0
 74
     0
 49
-1.0
 74
     0
  0
ENDTAB
  0
TABLE
  2
LAYER
  5
2
330
0
100
AcDbSymbolTable
 70
     2
  0
LAYER
  5
10
330
2
100
AcDbSymbolTableRecord
100
AcDbLayerTableRecord
  2
0
 70
     0
 62
     7
  6
Continuous
370
    -3
390
F
  0
LAYER
  5
46
330
2
100
AcDbSymbolTableRecord
100
AcDbLayerTableRecord
  2
1
 70
     0
 62
     7
  6
Continuous
370
    -3
390
F
  0
ENDTAB
  0
TABLE
  2
STYLE
  5
3
330
0
100
AcDbSymbolTable
 70
     5
  0
STYLE
  5
11
330
3
100
AcDbSymbolTableRecord
100
AcDbTextStyleTableRecord
  2
Standard
 70
     0
 40
0.0
 41
1.0
 50
0.0
 71
     0
 42
0.2
  3
txt
  4

  0
STYLE
  5
97
330
3
100
AcDbSymbolTableRecord
100
AcDbTextStyleTableRecord
  2
CONVERTER_11
 70
     0
 40
0.0
 41
1.2
 50
0.0
 71
     0
 42
0.2
  3
ARIAL.TTF
  4

  0
STYLE
  5
9C
330
3
100
AcDbSymbolTableRecord
100
AcDbTextStyleTableRecord
  2
CONVERTER_12
 70
     0
 40
0.0
 41
1.38
 50
0.0
 71
     0
 42
0.2
  3
ARIAL.TTF
  4

  0
STYLE
  5
9F
330
3
100
AcDbSymbolTableRecord
100
AcDbTextStyleTableRecord
  2
CONVERTER_13
 70
     0
 40
0.0
 41
0.96
 50
0.0
 71
     0
 42
0.2
  3
ARIAL.TTF
  4

  0
STYLE
  5
26F
330
3
100
AcDbSymbolTableRecord
100
AcDbTextStyleTableRecord
  2
CONVERTER_14
 70
     0
 40
0.0
 41
0.95
 50
0.0
 71
     0
 42
0.2
  3
simplex.shx
  4

  0
ENDTAB
  0
TABLE
  2
VIEW
  5
6
330
0
100
AcDbSymbolTable
 70
     0
  0
ENDTAB
  0
TABLE
  2
UCS
  5
7
330
0
100
AcDbSymbolTable
 70
     0
  0
ENDTAB
  0
TABLE
  2
APPID
  5
9
330
0
100
AcDbSymbolTable
 70
     1
  0
APPID
  5
12
330
9
100
AcDbSymbolTableRecord
100
AcDbRegAppTableRecord
  2
ACAD
 70
     0
  0
ENDTAB
  0
TABLE
  2
DIMSTYLE
  5
A
330
0
100
AcDbSymbolTable
 70
     9
100
AcDbDimStyleTable
  0
DIMSTYLE
105
27
330
A
100
AcDbSymbolTableRecord
100
AcDbDimStyleTableRecord
  2
Standard
 70
     0
178
     0
340
11
  0
DIMSTYLE
105
273
102
{ACAD_REACTORS
330
274
102
}
330
A
100
AcDbSymbolTableRecord
100
AcDbDimStyleTableRecord
  2
ME10_DIM_10
 70
     0
 41
6.0
 42
1.0
 44
2.0
 73
     0
 74
     0
 77
     1
 78
     8
140
6.0
147
4.0
172
     1
173
     1
174
     1
175
     1
176
     2
177
     2
271
     2
178
     4
271
     2
340
26F
  0
DIMSTYLE
105
27E
102
{ACAD_REACTORS
330
27F
102
}
330
A
100
AcDbSymbolTableRecord
100
AcDbDimStyleTableRecord
  2
ME10_DIM_11
 70
     0
 41
6.0
 42
1.0
 44
2.0
 73
     0
 74
     0
 77
     1
 78
     8
140
6.0
147
4.0
172
     1
173
     1
174
     1
175
     1
176
     2
177
     2
271
     2
178
     4
271
     2
340
26F
  0
DIMSTYLE
105
289
102
{ACAD_REACTORS
330
28A
102
}
330
A
100
AcDbSymbolTableRecord
100
AcDbDimStyleTableRecord
  2
ME10_DIM_12
 70
     0
 41
6.0
 42
1.0
 44
2.0
 73
     0
 74
     0
 77
     1
 78
     8
140
6.0
147
4.0
172
     1
173
     1
174
     1
175
     1
176
     2
177
     2
271
     2
178
     4
271
     2
340
26F
  0
DIMSTYLE
105
296
102
{ACAD_REACTORS
330
297
102
}
330
A
100
AcDbSymbolTableRecord
100
AcDbDimStyleTableRecord
  2
ME10_DIM_13
 70
     0
 41
6.0
 42
1.0
 44
2.0
 73
     0
 74
     0
 77
     1
 78
     8
140
6.0
147
4.0
172
     1
173
     1
174
     1
175
     1
176
     2
177
     2
271
     2
178
     4
271
     2
340
26F
  0
DIMSTYLE
105
2A1
102
{ACAD_REACTORS
330
2A2
102
}
330
A
100
AcDbSymbolTableRecord
100
AcDbDimStyleTableRecord
  2
ME10_DIM_14
 70
     0
 41
6.0
 42
1.0
 44
2.0
 73
     0
 74
     0
 77
     1
 78
     8
140
6.0
147
4.0
172
     1
173
     1
174
     1
175
     1
176
     2
177
     2
271
     2
178
     4
271
     2
340
26F
  0
DIMSTYLE
105
2AC
102
{ACAD_REACTORS
330
2AD
102
}
330
A
100
AcDbSymbolTableRecord
100
AcDbDimStyleTableRecord
  2
ME10_DIM_15
 70
     0
 41
6.0
 42
1.0
 44
2.0
 73
     0
 74
     0
 77
     1
 78
     8
140
6.0
147
4.0
172
     1
173
     1
174
     1
175
     1
176
     2
177
     2
271
     2
178
     4
271
     2
340
26F
  0
DIMSTYLE
105
2B7
102
{ACAD_REACTORS
330
2B8
102
}
330
A
100
AcDbSymbolTableRecord
100
AcDbDimStyleTableRecord
  2
ME10_DIM_16
 70
     0
 41
6.0
 42
1.0
 44
2.0
 73
     0
 74
     0
 77
     1
 78
     8
140
6.0
147
4.0
172
     1
173
     1
174
     1
175
     1
176
     2
177
     2
271
     2
178
     4
271
     2
340
26F
  0
DIMSTYLE
105
2C2
102
{ACAD_REACTORS
330
2C3
102
}
330
A
100
AcDbSymbolTableRecord
100
AcDbDimStyleTableRecord
  2
ME10_DIM_17
 70
     0
 41
6.0
 42
1.0
 44
2.0
 73
     0
 74
     0
 77
     1
 78
     8
140
6.0
147
4.0
172
     1
173
     1
174
     1
175
     1
176
     2
177
     2
271
     2
178
     4
271
     2
340
26F
  0
ENDTAB
  0
TABLE
  2
BLOCK_RECORD
  5
1
330
0
100
AcDbSymbolTable
 70
    10
  0
BLOCK_RECORD
  5
1F
330
1
100
AcDbSymbolTableRecord
100
AcDbBlockTableRecord
  2
*Model_Space
340
22
  0
BLOCK_RECORD
  5
1B
330
1
100
AcDbSymbolTableRecord
100
AcDbBlockTableRecord
  2
*Paper_Space
340
1E
  0
BLOCK_RECORD
  5
23
330
1
100
AcDbSymbolTableRecord
100
AcDbBlockTableRecord
  2
*Paper_Space0
340
26
  0
BLOCK_RECORD
  5
47
330
1
100
AcDbSymbolTableRecord
100
AcDbBlockTableRecord
  2
_formato_A4
340
0
102
{BLKREFS
331
4A
102
}
  0
BLOCK_RECORD
  5
269
330
1
100
AcDbSymbolTableRecord
100
AcDbBlockTableRecord
  2
*D2
340
0
  0
BLOCK_RECORD
  5
275
330
1
100
AcDbSymbolTableRecord
100
AcDbBlockTableRecord
  2
*D3
340
0
  0
BLOCK_RECORD
  5
280
330
1
100
AcDbSymbolTableRecord
100
AcDbBlockTableRecord
  2
*D4
340
0
  0
BLOCK_RECORD
  5
28B
330
1
100
AcDbSymbolTableRecord
100
AcDbBlockTableRecord
  2
*D5
340
0
  0
BLOCK_RECORD
  5
298
330
1
100
AcDbSymbolTableRecord
100
AcDbBlockTableRecord
  2
*D6
340
0
  0
BLOCK_RECORD
  5
2A3
330
1
100
AcDbSymbolTableRecord
100
AcDbBlockTableRecord
  2
*D7
340
0
  0
BLOCK_RECORD
  5
2AE
330
1
100
AcDbSymbolTableRecord
100
AcDbBlockTableRecord
  2
*D8
340
0
  0
BLOCK_RECORD
  5
2B9
330
1
100
AcDbSymbolTableRecord
100
AcDbBlockTableRecord
  2
*D9
340
0
  0
ENDTAB
  0
ENDSEC
  0
SECTION
  2
BLOCKS
  0
BLOCK
  5
20
330
1F
100
AcDbEntity
  8
0
100
AcDbBlockBegin
  2
*Model_Space
 70
     0
 10
0.0
 20
0.0
 30
0.0
  3
*Model_Space
  1

  0
ENDBLK
  5
21
330
1F
100
AcDbEntity
  8
0
100
AcDbBlockEnd
  0
BLOCK
  5
1C
330
1B
100
AcDbEntity
 67
     1
  8
0
100
AcDbBlockBegin
  2
*Paper_Space
 70
     0
 10
0.0
 20
0.0
 30
0.0
  3
*Paper_Space
  1

  0
ENDBLK
  5
1D
330
1B
100
AcDbEntity
 67
     1
  8
0
100
AcDbBlockEnd
  0
BLOCK
  5
24
330
23
100
AcDbEntity
  8
0
100
AcDbBlockBegin
  2
*Paper_Space0
 70
     0
 10
0.0
 20
0.0
 30
0.0
  3
*Paper_Space0
  1

  0
ENDBLK
  5
25
330
23
100
AcDbEntity
  8
0
100
AcDbBlockEnd
  0
BLOCK
  5
48
330
47
100
AcDbEntity
  8
0
100
AcDbBlockBegin
  2
_formato_A4
 70
     0
 10
297.0000000000001
 20
0.0
 30
0.0
  3
_formato_A4
  1

  0
LINE
  5
4B
330
47
100
AcDbEntity
  8
1
  6
Continuous
 62
     7
100
AcDbLine
 10
108.0000000000001
 20
9.99999999999986
 30
0.0
 11
138.0000000000001
 21
9.99999999999986
 31
0.0
  0
LINE
  5
4C
330
47
100
AcDbEntity
  8
1
  6
Continuous
 62
     7
100
AcDbLine
 10
108.0000000000001
 20
14.99999999999989
 30
0.0
 11
138.0000000000001
 21
14.99999999999989
 31
0.0
  0
LINE
  5
4D
330
47
100
AcDbEntity
  8
1
  6
Continuous
 62
     7
100
AcDbLine
 10
248.0000000000001
 20
20.0
 30
0.0
 11
248.0000000000001
 21
5.0
 31
0.0
  0
LINE
  5
4E
330
47
100
AcDbEntity
  8
1
  6
Continuous
 62
     7
100
AcDbLine
 10
265.3526013774855
 20
20.0
 30
0.0
 11
265.3526013774855
 21
5.0
 31
0.0
  0
LINE
  5
4F
330
47
100
AcDbEntity
  8
1
  6
Continuous
 62
     7
100
AcDbLine
 10
138.0000000000001
 20
20.0
 30
0.0
 11
138.0000000000001
 21
5.0
 31
0.0
  0
LINE
  5
50
330
47
100
AcDbEntity
  8
1
  6
Continuous
 62
     7
100
AcDbLine
 10
148.4999999999998
 20
210.0000000000001
 30
0.0
 11
148.4999999999998
 21
195.0000000000001
 31
0.0
  0
LINE
  5
51
330
47
100
AcDbEntity
  8
1
  6
Continuous
 62
     7
100
AcDbLine
 10
0.0
 20
0.0
 30
0.0
 11
297.0000000000001
 21
0.0
 31
0.0
  0
LINE
  5
52
330
47
100
AcDbEntity
  8
1
  6
Continuous
 62
     7
100
AcDbLine
 10
0.0
 20
210.0000000000001
 30
0.0
 11
0.0
 21
0.0
 31
0.0
  0
LINE
  5
53
330
47
100
AcDbEntity
  8
1
  6
Continuous
 62
     7
100
AcDbLine
 10
297.0000000000001
 20
210.0000000000001
 30
0.0
 11
0.0
 21
210.0000000000001
 31
0.0
  0
LINE
  5
54
330
47
100
AcDbEntity
  8
1
  6
Continuous
 62
     7
100
AcDbLine
 10
297.0000000000001
 20
0.0
 30
0.0
 11
297.0000000000001
 21
210.0000000000001
 31
0.0
  0
LINE
  5
55
330
47
100
AcDbEntity
  8
1
  6
Continuous
 62
     7
100
AcDbLine
 10
4.99999999999989
 20
5.0
 30
0.0
 11
292.0000000000001
 21
5.0
 31
0.0
  0
LINE
  5
56
330
47
100
AcDbEntity
  8
1
  6
Continuous
 62
     7
100
AcDbLine
 10
292.0000000000001
 20
5.0
 30
0.0
 11
292.0000000000001
 21
189.0
 31
0.0
  0
LINE
  5
57
330
47
100
AcDbEntity
  8
1
  6
Continuous
 62
     7
100
AcDbLine
 10
292.0000000000001
 20
189.0
 30
0.0
 11
4.99999999999989
 21
189.0
 31
0.0
  0
LINE
  5
58
102
{ACAD_REACTORS
330
A6
102
}
330
47
100
AcDbEntity
  8
1
  6
Continuous
 62
     7
100
AcDbLine
 10
281.0096340220762
 20
10.07749983983263
 30
0.0
 11
281.0096340220762
 21
14.92250016016737
 31
0.0
  0
LINE
  5
59
102
{ACAD_REACTORS
330
A3
102
}
330
47
100
AcDbEntity
  8
1
  6
Continuous
 62
     7
100
AcDbLine
 10
279.6763006887428
 20
12.5
 30
0.0
 11
279.6763006887428
 21
14.23205080756884
 31
0.0
  0
LINE
  5
5A
102
{ACAD_REACTORS
330
A3
102
}
330
47
100
AcDbEntity
  8
1
  6
Continuous
 62
     7
100
AcDbLine
 10
279.6763006887428
 20
14.23205080756884
 30
0.0
 11
278.8206382560402
 21
12.75
 31
0.0
  0
LINE
  5
5B
102
{ACAD_REACTORS
330
A3
102
}
330
47
100
AcDbEntity
  8
1
  6
Continuous
 62
     7
100
AcDbLine
 10
278.5319631214453
 20
12.75
 30
0.0
 11
277.6763006887428
 21
14.23205080756884
 31
0.0
  0
LINE
  5
5C
102
{ACAD_REACTORS
330
A3
102
}
330
47
100
AcDbEntity
  8
1
  6
Continuous
 62
     7
100
AcDbLine
 10
277.6763006887428
 20
14.23205080756884
 30
0.0
 11
277.6763006887428
 21
12.5
 31
0.0
  0
LINE
  5
5D
330
47
100
AcDbEntity
  8
1
  6
Continuous
 62
     7
100
AcDbLine
 10
270.2598654136012
 20
12.64436426434133
 30
0.0
 11
278.6763006887428
 21
17.5
 31
0.0
  0
LINE
  5
5E
330
47
100
AcDbEntity
  8
1
  6
Continuous
 62
     7
100
AcDbLine
 10
278.6763006887428
 20
17.5
 30
0.0
 11
287.0927359638843
 21
12.64436426434133
 31
0.0
  0
LINE
  5
5F
330
47
100
AcDbEntity
  8
1
  6
Continuous
 62
     7
100
AcDbLine
 10
287.0927359638843
 20
12.35563573565855
 30
0.0
 11
278.6763006887428
 21
7.5
 31
0.0
  0
LINE
  5
60
330
47
100
AcDbEntity
  8
1
  6
Continuous
 62
     7
100
AcDbLine
 10
278.6763006887428
 20
7.5
 30
0.0
 11
270.2598654136012
 21
12.35563573565855
 31
0.0
  0
LINE
  5
61
102
{ACAD_REACTORS
330
A3
102
}
330
47
100
AcDbEntity
  8
1
  6
Continuous
 62
     7
100
AcDbLine
 10
277.0096340220761
 20
12.5
 30
0.0
 11
277.0096340220761
 21
15.73121731203457
 31
0.0
  0
LINE
  5
62
102
{ACAD_REACTORS
330
A3
102
}
330
47
100
AcDbEntity
  8
1
  6
Continuous
 62
     7
100
AcDbLine
 10
277.5040677056995
 20
15.86370041827229
 30
0.0
 11
278.6763006887428
 21
13.83333333333326
 31
0.0
  0
LINE
  5
63
102
{ACAD_REACTORS
330
A3
102
}
330
47
100
AcDbEntity
  8
1
  6
Continuous
 62
     7
100
AcDbLine
 10
277.0096340220761
 20
12.5
 30
0.0
 11
277.0096340220761
 21
10.84758507263291
 31
0.0
  0
LINE
  5
64
102
{ACAD_REACTORS
330
A3
102
}
330
47
100
AcDbEntity
  8
1
  6
Continuous
 62
     7
100
AcDbLine
 10
277.6763006887428
 20
10.84758507263291
 30
0.0
 11
277.6763006887428
 21
12.5
 31
0.0
  0
LINE
  5
65
102
{ACAD_REACTORS
330
A3
102
}
330
47
100
AcDbEntity
  8
1
  6
Continuous
 62
     7
100
AcDbLine
 10
279.6763006887428
 20
12.5
 30
0.0
 11
279.6763006887428
 21
9.3082690706018
 31
0.0
  0
LINE
  5
66
102
{ACAD_REACTORS
330
A3
102
}
330
47
100
AcDbEntity
  8
1
  6
Continuous
 62
     7
100
AcDbLine
 10
280.3429673554094
 20
9.3082690706018
 30
0.0
 11
280.3429673554094
 21
15.73121731203457
 31
0.0
  0
LINE
  5
67
102
{ACAD_REACTORS
330
A3
102
}
330
47
100
AcDbEntity
  8
1
  6
Continuous
 62
     7
100
AcDbLine
 10
279.8485336717861
 20
15.86370041827229
 30
0.0
 11
278.6763006887428
 21
13.83333333333326
 31
0.0
  0
LINE
  5
68
102
{ACAD_REACTORS
330
A4
102
}
330
47
100
AcDbEntity
  8
1
  6
Continuous
 62
     7
100
AcDbLine
 10
275.6763006887428
 20
10.27002114803258
 30
0.0
 11
275.6763006887428
 21
14.92250016016737
 31
0.0
  0
LINE
  5
69
102
{ACAD_REACTORS
330
A4
102
}
330
47
100
AcDbEntity
  8
1
  6
Continuous
 62
     7
100
AcDbLine
 10
276.3429673554094
 20
14.92250016016737
 30
0.0
 11
276.3429673554094
 21
10.2700211480327
 31
0.0
  0
LINE
  5
6A
102
{ACAD_REACTORS
330
A4
102
}
330
47
100
AcDbEntity
  8
1
  6
Continuous
 62
     7
100
AcDbLine
 10
276.3429673554094
 20
10.2700211480327
 30
0.0
 11
278.5095415065727
 21
9.0200745223616
 31
0.0
  0
LINE
  5
6B
102
{ACAD_REACTORS
330
A4
102
}
330
47
100
AcDbEntity
  8
1
  6
Continuous
 62
     7
100
AcDbLine
 10
278.1763932042462
 20
8.44261746499581
 30
0.0
 11
276.0098190530831
 21
9.69256409066691
 31
0.0
  0
LINE
  5
6C
102
{ACAD_REACTORS
330
A5
102
}
330
47
100
AcDbEntity
  8
1
  6
Continuous
 62
     7
100
AcDbLine
 10
275.0096340220761
 20
14.15326939093666
 30
0.0
 11
275.0096340220761
 21
11.0392519172633
 31
0.0
  0
LINE
  5
6D
102
{ACAD_REACTORS
330
A5
102
}
330
47
100
AcDbEntity
  8
1
  6
Continuous
 62
     7
100
AcDbLine
 10
275.0096340220761
 20
11.0392519172633
 30
0.0
 11
275.0096340220761
 21
10.84673060906323
 31
0.0
  0
LINE
  5
6E
102
{ACAD_REACTORS
330
A5
102
}
330
47
100
AcDbEntity
  8
1
  6
Continuous
 62
     7
100
AcDbLine
 10
274.3429673554094
 20
10.84673060906323
 30
0.0
 11
274.3429673554094
 21
14.15326939093666
 31
0.0
  0
LINE
  5
6F
102
{ACAD_REACTORS
330
A6
102
}
330
47
100
AcDbEntity
  8
1
  6
Continuous
 62
     7
100
AcDbLine
 10
281.5095415065727
 20
15.21122868885027
 30
0.0
 11
282.8428748399059
 21
14.44199791961944
 31
0.0
  0
LINE
  5
70
102
{ACAD_REACTORS
330
A6
102
}
330
47
100
AcDbEntity
  8
1
  6
Continuous
 62
     7
100
AcDbLine
 10
282.5097265375796
 20
13.86454086225376
 30
0.0
 11
281.6763006887428
 21
14.34536346735195
 31
0.0
  0
LINE
  5
71
102
{ACAD_REACTORS
330
A6
102
}
330
47
100
AcDbEntity
  8
1
  6
Continuous
 62
     7
100
AcDbLine
 10
281.6763006887428
 20
14.34536346735195
 30
0.0
 11
281.6763006887428
 21
12.83333333333326
 31
0.0
  0
LINE
  5
72
102
{ACAD_REACTORS
330
A6
102
}
330
47
100
AcDbEntity
  8
1
  6
Continuous
 62
     7
100
AcDbLine
 10
281.6763006887428
 20
12.83333333333326
 30
0.0
 11
282.6763006887428
 21
12.83333333333326
 31
0.0
  0
LINE
  5
73
102
{ACAD_REACTORS
330
A6
102
}
330
47
100
AcDbEntity
  8
1
  6
Continuous
 62
     7
100
AcDbLine
 10
282.6763006887428
 20
12.16666666666663
 30
0.0
 11
281.6763006887428
 21
12.16666666666663
 31
0.0
  0
LINE
  5
74
102
{ACAD_REACTORS
330
A6
102
}
330
47
100
AcDbEntity
  8
1
  6
Continuous
 62
     7
100
AcDbLine
 10
281.6763006887428
 20
12.16666666666663
 30
0.0
 11
281.6763006887428
 21
10.65463653264794
 31
0.0
  0
LINE
  5
75
102
{ACAD_REACTORS
330
A6
102
}
330
47
100
AcDbEntity
  8
1
  6
Continuous
 62
     7
100
AcDbLine
 10
281.6763006887428
 20
10.65463653264794
 30
0.0
 11
282.5097265375796
 21
11.13545913774624
 31
0.0
  0
LINE
  5
76
102
{ACAD_REACTORS
330
A6
102
}
330
47
100
AcDbEntity
  8
1
  6
Continuous
 62
     7
100
AcDbLine
 10
282.8428748399059
 20
10.55800208038033
 30
0.0
 11
281.5095415065727
 21
9.78877131114973
 31
0.0
  0
LINE
  5
77
330
47
100
AcDbEntity
  8
1
  6
Continuous
 62
     7
100
AcDbLine
 10
108.0000000000001
 20
25.0
 30
0.0
 11
292.0000000000001
 21
25.0
 31
0.0
  0
LINE
  5
78
330
47
100
AcDbEntity
  8
1
  6
Continuous
 62
     7
100
AcDbLine
 10
115.0000000000001
 20
20.0
 30
0.0
 11
115.0000000000001
 21
25.0
 31
0.0
  0
LINE
  5
79
330
47
100
AcDbEntity
  8
1
  6
Continuous
 62
     7
100
AcDbLine
 10
133.0000000000002
 20
20.0
 30
0.0
 11
133.0000000000002
 21
25.0
 31
0.0
  0
LINE
  5
7A
330
47
100
AcDbEntity
  8
1
  6
Continuous
 62
     7
100
AcDbLine
 10
108.0000000000001
 20
30.0
 30
0.0
 11
292.0000000000001
 21
30.0
 31
0.0
  0
LINE
  5
7B
330
47
100
AcDbEntity
  8
1
  6
Continuous
 62
     7
100
AcDbLine
 10
115.0000000000001
 20
25.0
 30
0.0
 11
115.0000000000001
 21
30.0
 31
0.0
  0
LINE
  5
7C
330
47
100
AcDbEntity
  8
1
  6
Continuous
 62
     7
100
AcDbLine
 10
133.0000000000002
 20
25.0
 30
0.0
 11
133.0000000000002
 21
30.0
 31
0.0
  0
LINE
  5
7D
330
47
100
AcDbEntity
  8
1
  6
Continuous
 62
     7
100
AcDbLine
 10
108.0000000000001
 20
35.0
 30
0.0
 11
292.0000000000001
 21
35.0
 31
0.0
  0
LINE
  5
7E
330
47
100
AcDbEntity
  8
1
  6
Continuous
 62
     7
100
AcDbLine
 10
115.0000000000001
 20
30.0
 30
0.0
 11
115.0000000000001
 21
35.0
 31
0.0
  0
LINE
  5
7F
330
47
100
AcDbEntity
  8
1
  6
Continuous
 62
     7
100
AcDbLine
 10
133.0000000000002
 20
30.0
 30
0.0
 11
133.0000000000002
 21
35.0
 31
0.0
  0
LINE
  5
80
330
47
100
AcDbEntity
  8
1
  6
Continuous
 62
     7
100
AcDbLine
 10
108.0000000000001
 20
40.0
 30
0.0
 11
292.0000000000001
 21
40.0
 31
0.0
  0
LINE
  5
81
330
47
100
AcDbEntity
  8
1
  6
Continuous
 62
     7
100
AcDbLine
 10
115.0000000000001
 20
35.0
 30
0.0
 11
115.0000000000001
 21
40.0
 31
0.0
  0
LINE
  5
82
330
47
100
AcDbEntity
  8
1
  6
Continuous
 62
     7
100
AcDbLine
 10
133.0000000000002
 20
35.0
 30
0.0
 11
133.0000000000002
 21
40.0
 31
0.0
  0
LINE
  5
83
330
47
100
AcDbEntity
  8
1
  6
Continuous
 62
     7
100
AcDbLine
 10
4.99999999999989
 20
189.0
 30
0.0
 11
4.99999999999989
 21
5.0
 31
0.0
  0
LINE
  5
84
330
47
100
AcDbEntity
  8
1
  6
Continuous
 62
     7
100
AcDbLine
 10
108.0000000000001
 20
20.0
 30
0.0
 11
292.0000000000001
 21
20.0
 31
0.0
  0
LINE
  5
85
330
47
100
AcDbEntity
  8
1
  6
Continuous
 62
     7
100
AcDbLine
 10
108.0000000000001
 20
4.99999999999989
 30
0.0
 11
108.0000000000001
 21
40.0
 31
0.0
  0
ARC
  5
86
102
{ACAD_REACTORS
330
A3
102
}
330
47
100
AcDbEntity
  8
1
  6
Continuous
 62
     7
100
AcDbCircle
 10
277.2746002345514
 20
15.73121731203457
 30
0.0
 40
0.2649662124753346
100
AcDbArc
 50
30.00000000001307
 51
180.0
  0
ARC
  5
87
102
{ACAD_REACTORS
330
A3
102
}
330
47
100
AcDbEntity
  8
1
  6
Continuous
 62
     7
100
AcDbCircle
 10
277.3429673554094
 20
10.84758507263291
 30
0.0
 40
0.3333333333333144
100
AcDbArc
 50
180.0
 51
0.0
  0
ARC
  5
88
102
{ACAD_REACTORS
330
A3
102
}
330
47
100
AcDbEntity
  8
1
  6
Continuous
 62
     7
100
AcDbCircle
 10
280.0096340220762
 20
9.3082690706018
 30
0.0
 40
0.3333333333334281
100
AcDbArc
 50
180.0
 51
0.0
  0
ARC
  5
89
102
{ACAD_REACTORS
330
A3
102
}
330
47
100
AcDbEntity
  8
1
  6
Continuous
 62
     7
100
AcDbCircle
 10
280.0780011429341
 20
15.73121731203457
 30
0.0
 40
0.2649662124753149
100
AcDbArc
 50
0.0
 51
149.9999999999746
  0
ARC
  5
8A
102
{ACAD_REACTORS
330
A4
102
}
330
47
100
AcDbEntity
  8
1
  6
Continuous
 62
     7
100
AcDbCircle
 10
276.0096340220761
 20
14.92250016016737
 30
0.0
 40
0.3333333333333144
100
AcDbArc
 50
0.0
 51
180.0
  0
ARC
  5
8B
102
{ACAD_REACTORS
330
A4
102
}
330
47
100
AcDbEntity
  8
1
  6
Continuous
 62
     7
100
AcDbCircle
 10
278.3429673554094
 20
8.7313459936787
 30
0.0
 40
0.3333333333333709
100
AcDbArc
 50
240.0183606311493
 51
60.01836063114089
  0
ARC
  5
8C
102
{ACAD_REACTORS
330
A5
102
}
330
47
100
AcDbEntity
  8
1
  6
Continuous
 62
     7
100
AcDbCircle
 10
274.6763006887428
 20
14.15326939093666
 30
0.0
 40
0.3333333333333144
100
AcDbArc
 50
0.0
 51
180.0
  0
ARC
  5
8D
102
{ACAD_REACTORS
330
A5
102
}
330
47
100
AcDbEntity
  8
1
  6
Continuous
 62
     7
100
AcDbCircle
 10
274.6763006887428
 20
10.84673060906323
 30
0.0
 40
0.3333333333333712
100
AcDbArc
 50
180.0
 51
0.0
  0
ARC
  5
8E
102
{ACAD_REACTORS
330
A6
102
}
330
47
100
AcDbEntity
  8
1
  6
Continuous
 62
     7
100
AcDbCircle
 10
282.6763006887428
 20
14.15326939093666
 30
0.0
 40
0.3333333333333755
100
AcDbArc
 50
240.0183606311498
 51
60.01836063115638
  0
ARC
  5
8F
102
{ACAD_REACTORS
330
A6
102
}
330
47
100
AcDbEntity
  8
1
  6
Continuous
 62
     7
100
AcDbCircle
 10
282.6763006887428
 20
12.5
 30
0.0
 40
0.3333333333333695
100
AcDbArc
 50
270.0
 51
90.0
  0
ARC
  5
90
102
{ACAD_REACTORS
330
A6
102
}
330
47
100
AcDbEntity
  8
1
  6
Continuous
 62
     7
100
AcDbCircle
 10
282.6763006887428
 20
10.84673060906323
 30
0.0
 40
0.3333333333333172
100
AcDbArc
 50
299.9816393688334
 51
119.9816393688407
  0
ARC
  5
91
102
{ACAD_REACTORS
330
A3
102
}
330
47
100
AcDbEntity
  8
1
  6
Continuous
 62
     7
100
AcDbCircle
 10
278.6763006887428
 20
12.83333333333326
 30
0.0
 40
0.166666666666709
100
AcDbArc
 50
209.9999999999622
 51
330.0000000000182
  0
ARC
  5
92
102
{ACAD_REACTORS
330
A4
102
}
330
47
100
AcDbEntity
  8
1
  6
Continuous
 62
     7
100
AcDbCircle
 10
276.3429673554094
 20
10.2700211480327
 30
0.0
 40
0.6666666666666288
100
AcDbArc
 50
180.0000000000104
 51
240.018360631158
  0
ARC
  5
93
330
47
100
AcDbEntity
  8
1
  6
Continuous
 62
     7
100
AcDbCircle
 10
270.3431524891829
 20
12.5
 30
0.0
 40
0.1666666666666407
100
AcDbArc
 50
119.9816393689046
 51
240.0183606311158
  0
ARC
  5
94
330
47
100
AcDbEntity
  8
1
  6
Continuous
 62
     7
100
AcDbCircle
 10
287.0094488883027
 20
12.5
 30
0.0
 40
0.166666666666687
100
AcDbArc
 50
299.9816393688503
 51
60.01836063112923
  0
ARC
  5
95
102
{ACAD_REACTORS
330
A6
102
}
330
47
100
AcDbEntity
  8
1
  6
Continuous
 62
     7
100
AcDbCircle
 10
281.3429673554094
 20
14.92250016016737
 30
0.0
 40
0.3333333333334024
100
AcDbArc
 50
60.01836063114121
 51
180.0
  0
ARC
  5
96
102
{ACAD_REACTORS
330
A6
102
}
330
47
100
AcDbEntity
  8
1
  6
Continuous
 62
     7
100
AcDbCircle
 10
281.3429673554094
 20
10.07749983983263
 30
0.0
 40
0.3333333333332007
100
AcDbArc
 50
180.0
 51
299.9816393688589
  0
MTEXT
  5
98
330
47
100
AcDbEntity
  8
1
 62
     7
100
AcDbMText
 10
119.6000000000001
 20
7.49999999999987
 30
0.0
 40
3.0
 41
0.0
 71
     4
 72
     1
  1
Radice
  7
CONVERTER_11
 73
     1
 44
1.32052821128451
  0
MTEXT
  5
99
330
47
100
AcDbEntity
  8
1
 62
     7
100
AcDbMText
 10
109.0000000000001
 20
7.49999999999987
 30
0.0
 40
3.0
 41
0.0
 71
     4
 72
     1
  1
Sign.
  7
CONVERTER_11
 73
     1
 44
1.32052821128451
  0
MTEXT
  5
9A
330
47
100
AcDbEntity
  8
1
 62
     7
100
AcDbMText
 10
119.6000000000001
 20
12.49999999999987
 30
0.0
 40
3.0
 41
0.0
 71
     4
 72
     1
  1
28/01/14
  7
CONVERTER_11
 73
     1
 44
1.32052821128451
  0
MTEXT
  5
9B
330
47
100
AcDbEntity
  8
1
 62
     7
100
AcDbMText
 10
109.0000000000001
 20
12.49999999999987
 30
0.0
 40
3.0
 41
0.0
 71
     4
 72
     1
  1
Date
  7
CONVERTER_11
 73
     1
 44
1.32052821128451
  0
MTEXT
  5
9D
330
47
100
AcDbEntity
  8
1
 62
     7
100
AcDbMText
 10
123.0000000000001
 20
17.49999999999994
 30
0.0
 40
2.5
 41
0.0
 71
     5
 72
     1
  1
dimensions in mm
  7
CONVERTER_12
 73
     1
 44
0.60024009603842
  0
MTEXT
  5
9E
330
47
100
AcDbEntity
  8
1
 62
     7
100
AcDbMText
 10
151.4999999999998
 20
194.0000000000001
 30
0.0
 40
4.0
 41
0.0
 71
     5
 72
     1
  1
Diritti riservati      All rights reserved
  7
CONVERTER_11
 73
     1
 44
1.32052821128451
  0
MTEXT
  5
A0
330
47
100
AcDbEntity
  8
1
 62
     7
100
AcDbMText
 10
144.2763006887428
 20
12.5
 30
0.0
 40
4.5
 41
0.0
 71
     4
 72
     1
  1
JCHP 32 LP36\PSurface mounting housing, 1 lever + plastic cover PG36 -JEI-
  7
CONVERTER_13
 73
     1
 44
0.90036014405762
  0
MTEXT
  5
A1
330
47
100
AcDbEntity
  8
1
 62
     7
100
AcDbMText
 10
256.6763006887428
 20
16.26063942075598
 30
0.0
 40
3.0
 41
0.0
 71
     5
 72
     1
  1
Scale
  7
CONVERTER_11
 73
     1
 44
1.32052821128451
  0
MTEXT
  5
A2
330
47
100
AcDbEntity
  8
1
 62
     7
100
AcDbMText
 10
256.6763006887428
 20
10.06063942075605
 30
0.0
 40
4.5
 41
0.0
 71
     5
 72
     1
  1
1:2
  7
CONVERTER_11
 73
     1
 44
1.32052821128451
  0
HATCH
  5
A3
330
47
100
AcDbEntity
  8
1
  6
Continuous
 62
     7
100
AcDbHatch
 10
0.0
 20
0.0
 30
0.0
210
0.0
220
0.0
230
1.0
  2
SOLID
 70
     1
 71
     1
 91
        1
 92
        1
 93
       16
 72
     2
 10
277.2746002345514
 20
15.73121731203457
 40
0.2649662124753346
 50
30.00000000001307
 51
180.0
 73
     1
 72
     1
 10
277.0096340220761
 20
15.73121731203457
 11
277.0096340220761
 21
12.5
 72
     1
 10
277.0096340220761
 20
12.5
 11
277.0096340220761
 21
10.84758507263291
 72
     2
 10
277.3429673554094
 20
10.84758507263291
 40
0.3333333333333144
 50
180.0
 51
360.0
 73
     1
 72
     1
 10
277.6763006887428
 20
10.84758507263291
 11
277.6763006887428
 21
12.5
 72
     1
 10
277.6763006887428
 20
12.5
 11
277.6763006887428
 21
14.23205080756884
 72
     1
 10
277.6763006887428
 20
14.23205080756884
 11
278.5319631214453
 21
12.75
 72
     2
 10
278.6763006887428
 20
12.83333333333326
 40
0.166666666666709
 50
209.9999999999622
 51
330.0000000000182
 73
     1
 72
     1
 10
278.8206382560402
 20
12.75
 11
279.6763006887428
 21
14.23205080756884
 72
     1
 10
279.6763006887428
 20
14.23205080756884
 11
279.6763006887428
 21
12.5
 72
     1
 10
279.6763006887428
 20
12.5
 11
279.6763006887428
 21
9.308269070601796
 72
     2
 10
280.0096340220762
 20
9.308269070601796
 40
0.3333333333334281
 50
180.0
 51
360.0
 73
     1
 72
     1
 10
280.3429673554094
 20
9.308269070601796
 11
280.3429673554094
 21
15.73121731203457
 72
     2
 10
280.0780011429341
 20
15.73121731203457
 40
0.2649662124753149
 50
0.0
 51
149.9999999999746
 73
     1
 72
     1
 10
279.8485336717861
 20
15.86370041827229
 11
278.6763006887428
 21
13.83333333333326
 72
     1
 10
278.6763006887428
 20
13.83333333333326
 11
277.5040677056995
 21
15.86370041827229
 97
       16
330
67
330
89
330
66
330
88
330
65
330
59
330
5A
330
91
330
5B
330
5C
330
64
330
87
330
63
330
61
330
86
330
62
 75
     0
 76
     1
 98
        1
 10
0.0
 20
0.0
  0
HATCH
  5
A4
330
47
100
AcDbEntity
  8
1
  6
Continuous
 62
     7
100
AcDbHatch
 10
0.0
 20
0.0
 30
0.0
210
0.0
220
0.0
230
1.0
  2
SOLID
 70
     1
 71
     1
 91
        1
 92
        1
 93
        7
 72
     1
 10
276.3429673554094
 20
14.92250016016737
 11
276.3429673554094
 21
10.2700211480327
 72
     1
 10
276.3429673554094
 20
10.2700211480327
 11
278.5095415065727
 21
9.020074522361597
 72
     2
 10
278.3429673554094
 20
8.731345993678701
 40
0.3333333333333709
 50
299.9816393688591
 51
479.9816393688507
 73
     0
 72
     1
 10
278.1763932042462
 20
8.442617464995806
 11
276.0098190530831
 21
9.692564090666906
 72
     2
 10
276.3429673554094
 20
10.2700211480327
 40
0.6666666666666288
 50
119.981639368842
 51
179.9999999999896
 73
     0
 72
     1
 10
275.6763006887428
 20
10.27002114803258
 11
275.6763006887428
 21
14.92250016016737
 72
     2
 10
276.0096340220761
 20
14.92250016016737
 40
0.3333333333333144
 50
180.0
 51
360.0
 73
     0
 97
        7
330
69
330
6A
330
8B
330
6B
330
92
330
68
330
8A
 75
     0
 76
     1
 98
        1
 10
0.0
 20
0.0
  0
HATCH
  5
A5
330
47
100
AcDbEntity
  8
1
  6
Continuous
 62
     7
100
AcDbHatch
 10
0.0
 20
0.0
 30
0.0
210
0.0
220
0.0
230
1.0
  2
SOLID
 70
     1
 71
     1
 91
        1
 92
        1
 93
        5
 72
     1
 10
275.0096340220761
 20
14.15326939093666
 11
275.0096340220761
 21
11.0392519172633
 72
     1
 10
275.0096340220761
 20
11.0392519172633
 11
275.0096340220761
 21
10.84673060906323
 72
     2
 10
274.6763006887428
 20
10.84673060906323
 40
0.3333333333333712
 50
0.0
 51
180.0
 73
     0
 72
     1
 10
274.3429673554094
 20
10.84673060906323
 11
274.3429673554094
 21
14.15326939093666
 72
     2
 10
274.6763006887428
 20
14.15326939093666
 40
0.3333333333333144
 50
180.0
 51
360.0
 73
     0
 97
        5
330
6C
330
6D
330
8D
330
6E
330
8C
 75
     0
 76
     1
 98
        1
 10
0.0
 20
0.0
  0
HATCH
  5
A6
330
47
100
AcDbEntity
  8
1
  6
Continuous
 62
     7
100
AcDbHatch
 10
0.0
 20
0.0
 30
0.0
210
0.0
220
0.0
230
1.0
  2
SOLID
 70
     1
 71
     1
 91
        1
 92
        1
 93
       14
 72
     1
 10
282.5097265375796
 20
13.86454086225376
 11
281.6763006887428
 21
14.34536346735195
 72
     1
 10
281.6763006887428
 20
14.34536346735195
 11
281.6763006887428
 21
12.83333333333326
 72
     1
 10
281.6763006887428
 20
12.83333333333326
 11
282.6763006887428
 21
12.83333333333326
 72
     2
 10
282.6763006887428
 20
12.5
 40
0.3333333333333695
 50
270.0
 51
450.0
 73
     0
 72
     1
 10
282.6763006887428
 20
12.16666666666663
 11
281.6763006887428
 21
12.16666666666663
 72
     1
 10
281.6763006887428
 20
12.16666666666663
 11
281.6763006887428
 21
10.65463653264794
 72
     1
 10
281.6763006887428
 20
10.65463653264794
 11
282.5097265375796
 21
11.13545913774624
 72
     2
 10
282.6763006887428
 20
10.84673060906323
 40
0.3333333333333172
 50
240.0183606311593
 51
420.0183606311667
 73
     0
 72
     1
 10
282.8428748399059
 20
10.55800208038033
 11
281.5095415065727
 21
9.78877131114973
 72
     2
 10
281.3429673554094
 20
10.07749983983263
 40
0.3333333333332007
 50
60.01836063114119
 51
180.0
 73
     0
 72
     1
 10
281.0096340220762
 20
10.07749983983263
 11
281.0096340220762
 21
14.92250016016737
 72
     2
 10
281.3429673554094
 20
14.92250016016737
 40
0.3333333333334024
 50
180.0
 51
299.9816393688589
 73
     0
 72
     1
 10
281.5095415065727
 20
15.21122868885027
 11
282.8428748399059
 21
14.44199791961944
 72
     2
 10
282.6763006887428
 20
14.15326939093666
 40
0.3333333333333755
 50
299.9816393688436
 51
479.9816393688502
 73
     0
 97
       14
330
6F
330
95
330
58
330
96
330
76
330
90
330
75
330
74
330
73
330
8F
330
72
330
71
330
70
330
8E
 75
     0
 76
     1
 98
        1
 10
0.0
 20
0.0
  0
ENDBLK
  5
49
330
47
100
AcDbEntity
  8
0
100
AcDbBlockEnd
  0
BLOCK
  5
271
330
269
100
AcDbEntity
  8
0
100
AcDbBlockBegin
  2
*D2
 70
     1
 10
0.0
 20
0.0
 30
0.0
  3
*D2
  1

  0
LINE
  5
26A
330
269
100
AcDbEntity
  8
1
  6
Continuous
 62
     2
100
AcDbLine
 10
134.5357561702948
 20
106.0646372176666
 30
0.0
 11
259.5357561702948
 21
106.0646372176666
 31
0.0
  0
LINE
  5
26B
330
269
100
AcDbEntity
  8
1
  6
Continuous
 62
     2
100
AcDbLine
 10
134.5357561702948
 20
145.0646372176666
 30
0.0
 11
134.5357561702948
 21
104.0646372176666
 31
0.0
  0
LINE
  5
26C
330
269
100
AcDbEntity
  8
1
  6
Continuous
 62
     2
100
AcDbLine
 10
259.5357561702948
 20
145.0646372176666
 30
0.0
 11
259.5357561702948
 21
104.0646372176666
 31
0.0
  0
SOLID
  5
26D
330
269
100
AcDbEntity
  8
1
 62
     2
100
AcDbTrace
 10
140.5357561702948
 20
106.854552203191
 30
0.0
 11
140.5357561702948
 21
105.2747222321422
 31
0.0
 12
134.5357561702948
 22
106.0646372176666
 32
0.0
 13
134.5357561702948
 23
106.0646372176666
 33
0.0
  0
SOLID
  5
26E
330
269
100
AcDbEntity
  8
1
 62
     2
100
AcDbTrace
 10
253.5357561702948
 20
105.2747222321422
 30
0.0
 11
253.5357561702948
 21
106.854552203191
 31
0.0
 12
259.5357561702948
 22
106.0646372176666
 32
0.0
 13
259.5357561702948
 23
106.0646372176666
 33
0.0
  0
MTEXT
  5
270
330
269
100
AcDbEntity
  8
1
 62
     4
100
AcDbMText
 10
190.7357561702948
 20
110.0646372176666
 30
0.0
 40
6.0
 41
0.0
 71
     7
 72
     1
  1
125
  7
CONVERTER_14
 11
0.9999999999970619
 21
2.424068405545306E-6
 31
0.0
 73
     1
 44
0.60024009603842
  0
ENDBLK
  5
272
330
269
100
AcDbEntity
  8
0
100
AcDbBlockEnd
  0
BLOCK
  5
27C
330
275
100
AcDbEntity
  8
0
100
AcDbBlockBegin
  2
*D3
 70
     1
 10
0.0
 20
0.0
 30
0.0
  3
*D3
  1

  0
LINE
  5
276
330
275
100
AcDbEntity
  8
1
  6
Continuous
 62
     2
100
AcDbLine
 10
356.6680325049272
 20
106.0646372176666
 30
0.0
 11
440.6680325049272
 21
106.0646372176666
 31
0.0
  0
LINE
  5
277
330
275
100
AcDbEntity
  8
1
  6
Continuous
 62
     2
100
AcDbLine
 10
356.6680325049272
 20
145.0646372176667
 30
0.0
 11
356.6680325049272
 21
104.0646372176666
 31
0.0
  0
LINE
  5
278
330
275
100
AcDbEntity
  8
1
  6
Continuous
 62
     2
100
AcDbLine
 10
440.6680325049272
 20
145.0646372176667
 30
0.0
 11
440.6680325049272
 21
104.0646372176666
 31
0.0
  0
SOLID
  5
279
330
275
100
AcDbEntity
  8
1
 62
     2
100
AcDbTrace
 10
362.6680325049272
 20
106.854552203191
 30
0.0
 11
362.6680325049272
 21
105.2747222321422
 31
0.0
 12
356.6680325049272
 22
106.0646372176666
 32
0.0
 13
356.6680325049272
 23
106.0646372176666
 33
0.0
  0
SOLID
  5
27A
330
275
100
AcDbEntity
  8
1
 62
     2
100
AcDbTrace
 10
434.6680325049272
 20
105.2747222321422
 30
0.0
 11
434.6680325049272
 21
106.854552203191
 31
0.0
 12
440.6680325049272
 22
106.0646372176666
 32
0.0
 13
440.6680325049272
 23
106.0646372176666
 33
0.0
  0
MTEXT
  5
27B
330
275
100
AcDbEntity
  8
1
 62
     4
100
AcDbMText
 10
393.8680325049272
 20
110.0646372176666
 30
0.0
 40
6.0
 41
0.0
 71
     7
 72
     1
  1
84
  7
CONVERTER_14
 11
0.9999999999970619
 21
2.424068405545306E-6
 31
0.0
 73
     1
 44
0.60024009603842
  0
ENDBLK
  5
27D
330
275
100
AcDbEntity
  8
0
100
AcDbBlockEnd
  0
BLOCK
  5
287
330
280
100
AcDbEntity
  8
0
100
AcDbBlockBegin
  2
*D4
 70
     1
 10
0.0
 20
0.0
 30
0.0
  3
*D4
  1

  0
LINE
  5
281
330
280
100
AcDbEntity
  8
1
  6
Continuous
 62
     2
100
AcDbLine
 10
328.1680325049271
 20
350.0646372176668
 30
0.0
 11
465.0978220179349
 21
350.0646372176668
 31
0.0
  0
LINE
  5
282
330
280
100
AcDbEntity
  8
1
  6
Continuous
 62
     2
100
AcDbLine
 10
328.1680325049271
 20
328.5646372176668
 30
0.0
 11
328.1680325049271
 21
352.0646372176668
 31
0.0
  0
LINE
  5
283
330
280
100
AcDbEntity
  8
1
  6
Continuous
 62
     2
100
AcDbLine
 10
465.0978220179349
 20
227.0646372176668
 30
0.0
 11
465.0978220179349
 21
352.0646372176668
 31
0.0
  0
SOLID
  5
284
330
280
100
AcDbEntity
  8
1
 62
     2
100
AcDbTrace
 10
334.1680325049271
 20
350.8545522031912
 30
0.0
 11
334.1680325049271
 21
349.2747222321424
 31
0.0
 12
328.1680325049271
 22
350.0646372176668
 32
0.0
 13
328.1680325049271
 23
350.0646372176668
 33
0.0
  0
SOLID
  5
285
330
280
100
AcDbEntity
  8
1
 62
     2
100
AcDbTrace
 10
459.0978220179349
 20
349.2747222321424
 30
0.0
 11
459.0978220179349
 21
350.8545522031912
 31
0.0
 12
465.0978220179349
 22
350.0646372176668
 32
0.0
 13
465.0978220179349
 23
350.0646372176668
 33
0.0
  0
MTEXT
  5
286
330
280
100
AcDbEntity
  8
1
 62
     4
100
AcDbMText
 10
390.332927261431
 20
354.0646372176668
 30
0.0
 40
6.0
 41
0.0
 71
     7
 72
     1
  1
145
  7
CONVERTER_14
 11
0.9999999999970619
 21
2.424068405545306E-6
 31
0.0
 73
     1
 44
0.60024009603842
  0
ENDBLK
  5
288
330
280
100
AcDbEntity
  8
0
100
AcDbBlockEnd
  0
BLOCK
  5
294
330
28B
100
AcDbEntity
  8
0
100
AcDbBlockBegin
  2
*D5
 70
     1
 10
0.0
 20
0.0
 30
0.0
  3
*D5
  1

  0
LINE
  5
28C
330
28B
100
AcDbEntity
  8
1
  6
Continuous
 62
     2
100
AcDbLine
 10
460.6680325049272
 20
151.0646372176668
 30
0.0
 11
460.6680325049272
 21
163.0646372176668
 31
0.0
  0
LINE
  5
28D
330
28B
100
AcDbEntity
  8
1
  6
Continuous
 62
     2
100
AcDbLine
 10
460.6680325049272
 20
146.0646372176668
 30
0.0
 11
460.6680325049272
 21
151.0646372176668
 31
0.0
  0
LINE
  5
28E
330
28B
100
AcDbEntity
  8
1
  6
Continuous
 62
     2
100
AcDbLine
 10
460.6680325049272
 20
134.0646372176668
 30
0.0
 11
460.6680325049272
 21
146.0646372176668
 31
0.0
  0
LINE
  5
28F
330
28B
100
AcDbEntity
  8
1
  6
Continuous
 62
     2
100
AcDbLine
 10
441.6680325049272
 20
151.0646372176668
 30
0.0
 11
462.6680325049272
 21
151.0646372176668
 31
0.0
  0
LINE
  5
290
330
28B
100
AcDbEntity
  8
1
  6
Continuous
 62
     2
100
AcDbLine
 10
441.6680325049272
 20
146.0646372176668
 30
0.0
 11
462.6680325049272
 21
146.0646372176668
 31
0.0
  0
SOLID
  5
291
330
28B
100
AcDbEntity
  8
1
 62
     2
100
AcDbTrace
 10
461.4579474904516
 20
140.0646372176668
 30
0.0
 11
459.8781175194028
 21
140.0646372176668
 31
0.0
 12
460.6680325049272
 22
146.0646372176668
 32
0.0
 13
460.6680325049272
 23
146.0646372176668
 33
0.0
  0
SOLID
  5
292
330
28B
100
AcDbEntity
  8
1
 62
     2
100
AcDbTrace
 10
459.8781175194028
 20
157.0646372176668
 30
0.0
 11
461.4579474904516
 21
157.0646372176668
 31
0.0
 12
460.6680325049272
 22
151.0646372176668
 32
0.0
 13
460.6680325049272
 23
151.0646372176668
 33
0.0
  0
MTEXT
  5
293
330
28B
100
AcDbEntity
  8
1
 62
     4
100
AcDbMText
 10
456.6680325049272
 20
159.2646372176668
 30
0.0
 40
6.0
 41
0.0
 71
     7
 72
     1
  1
5
  7
CONVERTER_14
 11
0.0
 21
1.0
 31
0.0
 73
     1
 44
0.60024009603842
  0
ENDBLK
  5
295
330
28B
100
AcDbEntity
  8
0
100
AcDbBlockEnd
  0
BLOCK
  5
29F
330
298
100
AcDbEntity
  8
0
100
AcDbBlockBegin
  2
*D6
 70
     1
 10
0.0
 20
0.0
 30
0.0
  3
*D6
  1

  0
LINE
  5
299
330
298
100
AcDbEntity
  8
1
  6
Continuous
 62
     2
100
AcDbLine
 10
480.6680325049272
 20
146.0646372176668
 30
0.0
 11
480.6680325049272
 21
236.0646372176668
 31
0.0
  0
LINE
  5
29A
330
298
100
AcDbEntity
  8
1
  6
Continuous
 62
     2
100
AcDbLine
 10
441.6680325049272
 20
146.0646372176668
 30
0.0
 11
482.6680325049272
 21
146.0646372176668
 31
0.0
  0
LINE
  5
29B
330
298
100
AcDbEntity
  8
1
  6
Continuous
 62
     2
100
AcDbLine
 10
441.9180325049272
 20
236.0646372176668
 30
0.0
 11
482.6680325049272
 21
236.0646372176668
 31
0.0
  0
SOLID
  5
29C
330
298
100
AcDbEntity
  8
1
 62
     2
100
AcDbTrace
 10
479.8781175194028
 20
152.0646372176668
 30
0.0
 11
481.4579474904516
 21
152.0646372176668
 31
0.0
 12
480.6680325049272
 22
146.0646372176668
 32
0.0
 13
480.6680325049272
 23
146.0646372176668
 33
0.0
  0
SOLID
  5
29D
330
298
100
AcDbEntity
  8
1
 62
     2
100
AcDbTrace
 10
481.4579474904516
 20
230.0646372176668
 30
0.0
 11
479.8781175194028
 21
230.0646372176668
 31
0.0
 12
480.6680325049272
 22
236.0646372176668
 32
0.0
 13
480.6680325049272
 23
236.0646372176668
 33
0.0
  0
MTEXT
  5
29E
330
298
100
AcDbEntity
  8
1
 62
     4
100
AcDbMText
 10
476.6680325049272
 20
186.5646372176668
 30
0.0
 40
6.0
 41
0.0
 71
     7
 72
     1
  1
90
  7
CONVERTER_14
 11
0.0
 21
1.0
 31
0.0
 73
     1
 44
0.60024009603842
  0
ENDBLK
  5
2A0
330
298
100
AcDbEntity
  8
0
100
AcDbBlockEnd
  0
BLOCK
  5
2AA
330
2A3
100
AcDbEntity
  8
0
100
AcDbBlockBegin
  2
*D7
 70
     1
 10
0.0
 20
0.0
 30
0.0
  3
*D7
  1

  0
LINE
  5
2A4
330
2A3
100
AcDbEntity
  8
1
  6
Continuous
 62
     2
100
AcDbLine
 10
279.5357561702948
 20
205.0446372176668
 30
0.0
 11
279.5357561702948
 21
165.5646372176668
 31
0.0
  0
LINE
  5
2A5
330
2A3
100
AcDbEntity
  8
1
  6
Continuous
 62
     2
100
AcDbLine
 10
260.557314377077
 20
205.0446372176668
 30
0.0
 11
281.5357561702948
 21
205.0446372176668
 31
0.0
  0
LINE
  5
2A6
330
2A3
100
AcDbEntity
  8
1
  6
Continuous
 62
     2
100
AcDbLine
 10
260.557314377077
 20
165.5646372176668
 30
0.0
 11
281.5357561702948
 21
165.5646372176668
 31
0.0
  0
SOLID
  5
2A7
330
2A3
100
AcDbEntity
  8
1
 62
     2
100
AcDbTrace
 10
280.3256711558192
 20
199.0446372176668
 30
0.0
 11
278.7458411847704
 21
199.0446372176668
 31
0.0
 12
279.5357561702948
 22
205.0446372176668
 32
0.0
 13
279.5357561702948
 23
205.0446372176668
 33
0.0
  0
SOLID
  5
2A8
330
2A3
100
AcDbEntity
  8
1
 62
     2
100
AcDbTrace
 10
278.7458411847704
 20
171.5646372176668
 30
0.0
 11
280.3256711558192
 21
171.5646372176668
 31
0.0
 12
279.5357561702948
 22
165.5646372176668
 32
0.0
 13
279.5357561702948
 23
165.5646372176668
 33
0.0
  0
MTEXT
  5
2A9
330
2A3
100
AcDbEntity
  8
1
 62
     4
100
AcDbMText
 10
275.5357561702948
 20
175.1046372176668
 30
0.0
 40
6.0
 41
0.0
 71
     7
 72
     1
  1
PG36
  7
CONVERTER_14
 11
0.0
 21
1.0
 31
0.0
 73
     1
 44
0.60024009603842
  0
ENDBLK
  5
2AB
330
2A3
100
AcDbEntity
  8
0
100
AcDbBlockEnd
  0
BLOCK
  5
2B5
330
2AE
100
AcDbEntity
  8
0
100
AcDbBlockBegin
  2
*D8
 70
     1
 10
0.0
 20
0.0
 30
0.0
  3
*D8
  1

  0
LINE
  5
2AF
330
2AE
100
AcDbEntity
  8
1
  6
Continuous
 62
     2
100
AcDbLine
 10
141.0357561702948
 20
126.0646372176666
 30
0.0
 11
253.0357561702948
 21
126.0646372176666
 31
0.0
  0
LINE
  5
2B0
330
2AE
100
AcDbEntity
  8
1
  6
Continuous
 62
     2
100
AcDbLine
 10
141.0357561702948
 20
142.0646372176666
 30
0.0
 11
141.0357561702948
 21
124.0646372176666
 31
0.0
  0
LINE
  5
2B1
330
2AE
100
AcDbEntity
  8
1
  6
Continuous
 62
     2
100
AcDbLine
 10
253.0357561702948
 20
142.0646372176666
 30
0.0
 11
253.0357561702948
 21
124.0646372176666
 31
0.0
  0
SOLID
  5
2B2
330
2AE
100
AcDbEntity
  8
1
 62
     2
100
AcDbTrace
 10
147.0357561702948
 20
126.854552203191
 30
0.0
 11
147.0357561702948
 21
125.2747222321422
 31
0.0
 12
141.0357561702948
 22
126.0646372176666
 32
0.0
 13
141.0357561702948
 23
126.0646372176666
 33
0.0
  0
SOLID
  5
2B3
330
2AE
100
AcDbEntity
  8
1
 62
     2
100
AcDbTrace
 10
247.0357561702948
 20
125.2747222321422
 30
0.0
 11
247.0357561702948
 21
126.854552203191
 31
0.0
 12
253.0357561702948
 22
126.0646372176666
 32
0.0
 13
253.0357561702948
 23
126.0646372176666
 33
0.0
  0
MTEXT
  5
2B4
330
2AE
100
AcDbEntity
  8
1
 62
     4
100
AcDbMText
 10
191.6357561702948
 20
130.0646372176666
 30
0.0
 40
6.0
 41
0.0
 71
     7
 72
     1
  1
112
  7
CONVERTER_14
 11
0.9999999999970619
 21
2.424068405545306E-6
 31
0.0
 73
     1
 44
0.60024009603842
  0
ENDBLK
  5
2B6
330
2AE
100
AcDbEntity
  8
0
100
AcDbBlockEnd
  0
BLOCK
  5
2C0
330
2B9
100
AcDbEntity
  8
0
100
AcDbBlockBegin
  2
*D9
 70
     1
 10
0.0
 20
0.0
 30
0.0
  3
*D9
  1

  0
LINE
  5
2BA
330
2B9
100
AcDbEntity
  8
1
  6
Continuous
 62
     2
100
AcDbLine
 10
365.1680325049272
 20
126.0646372176666
 30
0.0
 11
432.1680325049272
 21
126.0646372176666
 31
0.0
  0
LINE
  5
2BB
330
2B9
100
AcDbEntity
  8
1
  6
Continuous
 62
     2
100
AcDbLine
 10
365.1680325049272
 20
142.0646372176666
 30
0.0
 11
365.1680325049272
 21
124.0646372176666
 31
0.0
  0
LINE
  5
2BC
330
2B9
100
AcDbEntity
  8
1
  6
Continuous
 62
     2
100
AcDbLine
 10
432.1680325049272
 20
142.0646372176666
 30
0.0
 11
432.1680325049272
 21
124.0646372176666
 31
0.0
  0
SOLID
  5
2BD
330
2B9
100
AcDbEntity
  8
1
 62
     2
100
AcDbTrace
 10
371.1680325049272
 20
126.854552203191
 30
0.0
 11
371.1680325049272
 21
125.2747222321422
 31
0.0
 12
365.1680325049272
 22
126.0646372176666
 32
0.0
 13
365.1680325049272
 23
126.0646372176666
 33
0.0
  0
SOLID
  5
2BE
330
2B9
100
AcDbEntity
  8
1
 62
     2
100
AcDbTrace
 10
426.1680325049272
 20
125.2747222321422
 30
0.0
 11
426.1680325049272
 21
126.854552203191
 31
0.0
 12
432.1680325049272
 22
126.0646372176666
 32
0.0
 13
432.1680325049272
 23
126.0646372176666
 33
0.0
  0
MTEXT
  5
2BF
330
2B9
100
AcDbEntity
  8
1
 62
     4
100
AcDbMText
 10
394.1680325049272
 20
130.0646372176666
 30
0.0
 40
6.0
 41
0.0
 71
     7
 72
     1
  1
67
  7
CONVERTER_14
 11
0.9999999999970619
 21
2.424068405545306E-6
 31
0.0
 73
     1
 44
0.60024009603842
  0
ENDBLK
  5
2C1
330
2B9
100
AcDbEntity
  8
0
100
AcDbBlockEnd
  0
ENDSEC
  0
SECTION
  2
ENTITIES
  0
INSERT
  5
4A
330
1F
100
AcDbEntity
  8
1
100
AcDbBlockReference
  2
_formato_A4
 10
594.0000000000002
 20
0.0
 30
0.0
 41
2.0
 42
2.0
 43
2.0
  0
LINE
  5
A7
330
1F
100
AcDbEntity
  8
0
  6
Continuous
 62
     7
100
AcDbLine
 10
156.0357561702948
 20
230.5647372176666
 30
0.0
 11
238.0357561702948
 21
230.5647372176666
 31
0.0
  0
LINE
  5
A8
330
1F
100
AcDbEntity
  8
0
  6
Continuous
 62
     7
100
AcDbLine
 10
151.7857561702948
 20
240.8646372176666
 30
0.0
 11
242.2857561702948
 21
240.8646372176666
 31
0.0
  0
LINE
  5
A9
330
1F
100
AcDbEntity
  8
0
  6
Continuous
 62
     7
100
AcDbLine
 10
224.3377371342317
 20
252.8646372176666
 30
0.0
 11
242.2857561702948
 21
252.8646372176666
 31
0.0
  0
LINE
  5
AA
330
1F
100
AcDbEntity
  8
0
  6
Continuous
 62
     7
100
AcDbLine
 10
151.7857561702948
 20
252.8646372176666
 30
0.0
 11
169.7337752063579
 21
252.8646372176666
 31
0.0
  0
LINE
  5
AB
330
1F
100
AcDbEntity
  8
0
  6
Continuous
 62
     7
100
AcDbLine
 10
187.8857561702948
 20
238.6118275451536
 30
0.0
 11
183.7857561702948
 21
238.6118275451536
 31
0.0
  0
LINE
  5
AC
330
1F
100
AcDbEntity
  8
0
  6
Continuous
 62
     7
100
AcDbLine
 10
183.7857561702948
 20
238.0646372176666
 30
0.0
 11
183.7857561702948
 21
238.6118275451536
 31
0.0
  0
LINE
  5
AD
330
1F
100
AcDbEntity
  8
0
  6
Continuous
 62
     7
100
AcDbLine
 10
188.7857561702948
 20
217.2533388070614
 30
0.0
 11
188.7857561702948
 21
222.8759356282719
 31
0.0
  0
LINE
  5
AE
330
1F
100
AcDbEntity
  8
0
  6
Continuous
 62
     7
100
AcDbLine
 10
190.0357561702948
 20
222.8759356282719
 30
0.0
 11
190.0357561702948
 21
217.2533388070614
 31
0.0
  0
LINE
  5
AF
330
1F
100
AcDbEntity
  8
0
  6
Continuous
 62
     7
100
AcDbLine
 10
191.0357561702948
 20
240.0646372176666
 30
0.0
 11
191.0357561702948
 21
236.0646372176666
 31
0.0
  0
LINE
  5
B0
330
1F
100
AcDbEntity
  8
0
  6
Continuous
 62
     7
100
AcDbLine
 10
187.2857561702948
 20
335.0646372176667
 30
0.0
 11
206.7857561702948
 21
335.0646372176667
 31
0.0
  0
LINE
  5
B1
330
1F
100
AcDbEntity
  8
0
  6
Continuous
 62
     7
100
AcDbLine
 10
198.9107561702948
 20
214.2966080378306
 30
0.0
 11
198.9107561702948
 21
223.9039369071435
 31
0.0
  0
LINE
  5
B2
330
1F
100
AcDbEntity
  8
0
  6
Continuous
 62
     7
100
AcDbLine
 10
200.1607561702948
 20
225.8326663975026
 30
0.0
 11
200.1607561702948
 21
214.2966080378306
 31
0.0
  0
LINE
  5
B3
330
1F
100
AcDbEntity
  8
0
  6
Continuous
 62
     7
100
AcDbLine
 10
193.9107561702948
 20
217.2533388070614
 30
0.0
 11
193.9107561702948
 21
225.8326663975026
 31
0.0
  0
LINE
  5
B4
330
1F
100
AcDbEntity
  8
0
  6
Continuous
 62
     7
100
AcDbLine
 10
195.1607561702948
 20
223.9039369071435
 30
0.0
 11
195.1607561702948
 21
217.2533388070614
 31
0.0
  0
LINE
  5
B5
330
1F
100
AcDbEntity
  8
0
  6
Continuous
 62
     7
100
AcDbLine
 10
192.5357561702948
 20
224.3182433205796
 30
0.0
 11
192.5357561702948
 21
216.1720085676289
 31
0.0
  0
LINE
  5
B6
330
1F
100
AcDbEntity
  8
0
  6
Continuous
 62
     7
100
AcDbLine
 10
191.2857561702948
 20
215.8110311147537
 30
0.0
 11
191.2857561702948
 21
224.3182433205796
 31
0.0
  0
LINE
  5
B7
330
1F
100
AcDbEntity
  8
0
  6
Continuous
 62
     7
100
AcDbLine
 10
202.6607561702948
 20
219.4396372176666
 30
0.0
 11
202.6607561702948
 21
216.8210470291674
 31
0.0
  0
LINE
  5
B8
330
1F
100
AcDbEntity
  8
0
  6
Continuous
 62
     7
100
AcDbLine
 10
201.4107561702948
 20
215.7389157301383
 30
0.0
 11
201.4107561702948
 21
224.390358705195
 31
0.0
  0
LINE
  5
B9
330
1F
100
AcDbEntity
  8
0
  6
Continuous
 62
     7
100
AcDbLine
 10
197.0357561702948
 20
223.4458964054005
 30
0.0
 11
199.0295414044772
 21
226.1992337322015
 31
0.0
  0
LINE
  5
BA
330
1F
100
AcDbEntity
  8
0
  6
Continuous
 62
     7
100
AcDbLine
 10
202.6607561702948
 20
223.3082274061659
 30
0.0
 11
202.6607561702948
 21
220.6896372176666
 31
0.0
  0
LINE
  5
BB
330
1F
100
AcDbEntity
  8
0
  6
Continuous
 62
     7
100
AcDbLine
 10
198.9107561702948
 20
223.9039369071435
 30
0.0
 11
197.0357561702948
 21
221.3146372176666
 31
0.0
  0
LINE
  5
BC
330
1F
100
AcDbEntity
  8
0
  6
Continuous
 62
     7
100
AcDbLine
 10
197.0357561702948
 20
221.3146372176666
 30
0.0
 11
195.1607561702948
 21
223.9039369071435
 31
0.0
  0
LINE
  5
BD
330
1F
100
AcDbEntity
  8
0
  6
Continuous
 62
     7
100
AcDbLine
 10
195.0419709361124
 20
226.1992337322015
 30
0.0
 11
197.0357561702948
 21
223.4458964054005
 31
0.0
  0
LINE
  5
BE
330
1F
100
AcDbEntity
  8
0
  6
Continuous
 62
     7
100
AcDbLine
 10
197.0357561702948
 20
228.7180828417145
 30
0.0
 11
182.0364504219451
 21
220.0646372176666
 31
0.0
  0
LINE
  5
BF
330
1F
100
AcDbEntity
  8
0
  6
Continuous
 62
     7
100
AcDbLine
 10
203.0357561702948
 20
236.0646372176666
 30
0.0
 11
203.0357561702948
 21
240.0646372176666
 31
0.0
  0
LINE
  5
C0
330
1F
100
AcDbEntity
  8
0
  6
Continuous
 62
     7
100
AcDbLine
 10
210.2857561702948
 20
236.0646372176666
 30
0.0
 11
183.7857561702948
 21
236.0646372176666
 31
0.0
  0
LINE
  5
C1
330
1F
100
AcDbEntity
  8
0
  6
Continuous
 62
     7
100
AcDbLine
 10
191.0357561702948
 20
240.3918539363797
 30
0.0
 11
191.0357561702948
 21
240.3374204989537
 31
0.0
  0
LINE
  5
C2
330
1F
100
AcDbEntity
  8
0
  6
Continuous
 62
     7
100
AcDbLine
 10
191.0357561702948
 20
240.3374204989537
 30
0.0
 11
203.0357561702948
 21
240.3374204989537
 31
0.0
  0
LINE
  5
C3
330
1F
100
AcDbEntity
  8
0
  6
Continuous
 62
     7
100
AcDbLine
 10
191.0357561702948
 20
240.3918539363797
 30
0.0
 11
203.0357561702948
 21
240.3918539363797
 31
0.0
  0
LINE
  5
C4
330
1F
100
AcDbEntity
  8
0
  6
Continuous
 62
     7
100
AcDbLine
 10
180.7857561702948
 20
220.0646372176666
 30
0.0
 11
197.0357561702948
 21
229.4396372176666
 31
0.0
  0
LINE
  5
C5
330
1F
100
AcDbEntity
  8
0
  6
Continuous
 62
     7
100
AcDbLine
 10
182.0364504219451
 20
220.0646372176666
 30
0.0
 11
197.0357561702948
 21
211.4111915936188
 31
0.0
  0
LINE
  5
C6
330
1F
100
AcDbEntity
  8
0
  6
Continuous
 62
     7
100
AcDbLine
 10
187.2857561702948
 20
333.8297270878102
 30
0.0
 11
187.2857561702948
 21
335.0646372176667
 31
0.0
  0
LINE
  5
C7
330
1F
100
AcDbEntity
  8
0
  6
Continuous
 62
     7
100
AcDbLine
 10
206.7857561702948
 20
333.8297270878102
 30
0.0
 11
187.2857561702948
 21
333.8297270878102
 31
0.0
  0
LINE
  5
C8
330
1F
100
AcDbEntity
  8
0
  6
Continuous
 62
     7
100
AcDbLine
 10
204.5357561702948
 20
219.4396372176666
 30
0.0
 11
202.6607561702948
 21
219.4396372176666
 31
0.0
  0
LINE
  5
C9
330
1F
100
AcDbEntity
  8
0
  6
Continuous
 62
     7
100
AcDbLine
 10
197.0357561702948
 20
211.4111915936188
 30
0.0
 11
212.0350619186445
 21
220.0646372176666
 31
0.0
  0
LINE
  5
CA
330
1F
100
AcDbEntity
  8
0
  6
Continuous
 62
     7
100
AcDbLine
 10
202.6607561702948
 20
220.6896372176666
 30
0.0
 11
204.5357561702948
 21
220.6896372176666
 31
0.0
  0
LINE
  5
CB
330
1F
100
AcDbEntity
  8
0
  6
Continuous
 62
     7
100
AcDbLine
 10
204.2234296368638
 20
222.4066850216069
 30
0.0
 11
202.6607561702948
 21
223.3082274061659
 31
0.0
  0
LINE
  5
CC
330
1F
100
AcDbEntity
  8
0
  6
Continuous
 62
     7
100
AcDbLine
 10
202.3480827037258
 20
224.9317246964753
 30
0.0
 11
204.8480827037258
 21
223.4894170041677
 31
0.0
  0
LINE
  5
CD
330
1F
100
AcDbEntity
  8
0
  6
Continuous
 62
     7
100
AcDbLine
 10
206.1857561702948
 20
238.6118275451536
 30
0.0
 11
206.1857561702948
 21
240.8146372176667
 31
0.0
  0
LINE
  5
CE
330
1F
100
AcDbEntity
  8
0
  6
Continuous
 62
     7
100
AcDbLine
 10
206.1857561702948
 20
238.6118275451536
 30
0.0
 11
206.1857561702948
 21
238.0646372176666
 31
0.0
  0
LINE
  5
CF
330
1F
100
AcDbEntity
  8
0
  6
Continuous
 62
     7
100
AcDbLine
 10
206.1857561702948
 20
238.6118275451536
 30
0.0
 11
210.2857561702948
 21
238.6118275451536
 31
0.0
  0
LINE
  5
D0
330
1F
100
AcDbEntity
  8
0
  6
Continuous
 62
     7
100
AcDbLine
 10
206.0357561702948
 20
238.0646372176666
 30
0.0
 11
206.0357561702948
 21
240.0646372176666
 31
0.0
  0
LINE
  5
D1
330
1F
100
AcDbEntity
  8
0
  6
Continuous
 62
     7
100
AcDbLine
 10
206.0357561702948
 20
240.0646372176666
 30
0.0
 11
203.0357561702948
 21
240.0646372176666
 31
0.0
  0
LINE
  5
D2
330
1F
100
AcDbEntity
  8
0
  6
Continuous
 62
     7
100
AcDbLine
 10
210.2857561702948
 20
238.6118275451536
 30
0.0
 11
210.2857561702948
 21
238.0646372176666
 31
0.0
  0
LINE
  5
D3
330
1F
100
AcDbEntity
  8
0
  6
Continuous
 62
     7
100
AcDbLine
 10
210.2857561702948
 20
238.0646372176666
 30
0.0
 11
210.2857561702948
 21
236.0646372176666
 31
0.0
  0
LINE
  5
D4
330
1F
100
AcDbEntity
  8
0
  6
Continuous
 62
     7
100
AcDbLine
 10
203.0357561702948
 20
240.0646372176666
 30
0.0
 11
203.0357561702948
 21
240.3374204989537
 31
0.0
  0
LINE
  5
D5
330
1F
100
AcDbEntity
  8
0
  6
Continuous
 62
     7
100
AcDbLine
 10
203.0357561702948
 20
240.3374204989537
 30
0.0
 11
203.0357561702948
 21
240.3918539363797
 31
0.0
  0
LINE
  5
D6
330
1F
100
AcDbEntity
  8
0
  6
Continuous
 62
     7
100
AcDbLine
 10
212.0357561702948
 20
236.0646372176666
 30
0.0
 11
212.0357561702948
 21
240.8146372176667
 31
0.0
  0
LINE
  5
D7
330
1F
100
AcDbEntity
  8
0
  6
Continuous
 62
     7
100
AcDbLine
 10
206.1857561702948
 20
240.8146372176667
 30
0.0
 11
212.0357561702948
 21
240.8146372176667
 31
0.0
  0
LINE
  5
D8
330
1F
100
AcDbEntity
  8
0
  6
Continuous
 62
     7
100
AcDbLine
 10
197.0357561702948
 20
229.4396372176666
 30
0.0
 11
213.2857561702948
 21
220.0646372176666
 31
0.0
  0
LINE
  5
D9
330
1F
100
AcDbEntity
  8
0
  6
Continuous
 62
     7
100
AcDbLine
 10
213.2857561702948
 20
220.0646372176666
 30
0.0
 11
197.0357561702948
 21
210.6896372176666
 31
0.0
  0
LINE
  5
DA
330
1F
100
AcDbEntity
  8
0
  6
Continuous
 62
     7
100
AcDbLine
 10
212.0350619186445
 20
220.0646372176666
 30
0.0
 11
197.0357561702948
 21
228.7180828417145
 31
0.0
  0
LINE
  5
DB
330
1F
100
AcDbEntity
  8
0
  6
Continuous
 62
     7
100
AcDbLine
 10
206.7857561702948
 20
335.0646372176667
 30
0.0
 11
206.7857561702948
 21
333.8297270878102
 31
0.0
  0
LINE
  5
DC
330
1F
100
AcDbEntity
  8
0
  6
Continuous
 62
     7
100
AcDbLine
 10
236.8508460404383
 20
333.8297270878103
 30
0.0
 11
206.7857561702948
 21
333.8297270878102
 31
0.0
  0
LINE
  5
DD
330
1F
100
AcDbEntity
  8
0
  6
Continuous
 62
     7
100
AcDbLine
 10
240.3857561702948
 20
256.5646372176666
 30
0.0
 11
240.3857561702948
 21
325.0646372176667
 31
0.0
  0
LINE
  5
DE
330
1F
100
AcDbEntity
  8
0
  6
Continuous
 62
     7
100
AcDbLine
 10
245.6508460404384
 20
295.3146372176667
 30
0.0
 11
245.6508460404384
 21
325.0297270878103
 31
0.0
  0
LINE
  5
DF
330
1F
100
AcDbEntity
  8
0
  6
Continuous
 62
     7
100
AcDbLine
 10
244.3857561702948
 20
325.0646372176667
 30
0.0
 11
244.3857561702948
 21
256.5646372176666
 31
0.0
  0
LINE
  5
E0
330
1F
100
AcDbEntity
  8
0
  6
Continuous
 62
     7
100
AcDbLine
 10
259.5357561702948
 20
151.0646372176666
 30
0.0
 11
259.5357561702948
 21
160.2833962412482
 31
0.0
  0
LINE
  5
E1
330
1F
100
AcDbEntity
  8
0
  6
Continuous
 62
     7
100
AcDbLine
 10
259.5357561702948
 20
160.2833962412482
 30
0.0
 11
259.5357561702948
 21
215.5546372176667
 31
0.0
  0
LINE
  5
E2
330
1F
100
AcDbEntity
  8
0
  6
Continuous
 62
     7
100
AcDbLine
 10
259.5357561702948
 20
160.2833962412482
 30
0.0
 11
244.0357561702948
 21
160.2833962412482
 31
0.0
  0
LINE
  5
E3
330
1F
100
AcDbEntity
  8
0
  6
Continuous
 62
     7
100
AcDbLine
 10
259.5357561702948
 20
215.5546372176667
 30
0.0
 11
244.0357561702948
 21
215.5546372176667
 31
0.0
  0
LINE
  5
E4
330
1F
100
AcDbEntity
  8
0
  6
Continuous
 62
     7
100
AcDbLine
 10
251.9357561702948
 20
230.5646372176666
 30
0.0
 11
252.4357561702948
 21
230.5646372176666
 31
0.0
  0
LINE
  5
E5
330
1F
100
AcDbEntity
  8
0
  6
Continuous
 62
     7
100
AcDbLine
 10
251.9357561702948
 20
228.5646372176666
 30
0.0
 11
249.2857561702948
 21
228.5646372176666
 31
0.0
  0
LINE
  5
E6
330
1F
100
AcDbEntity
  8
0
  6
Continuous
 62
     7
100
AcDbLine
 10
251.9357561702948
 20
230.5646372176666
 30
0.0
 11
251.9357561702948
 21
228.5646372176666
 31
0.0
  0
LINE
  5
E7
330
1F
100
AcDbEntity
  8
0
  6
Continuous
 62
     7
100
AcDbLine
 10
251.9357561702948
 20
228.5646372176666
 30
0.0
 11
251.9357561702948
 21
226.0646372176666
 31
0.0
  0
LINE
  5
E8
330
1F
100
AcDbEntity
  8
0
  6
Continuous
 62
     7
100
AcDbLine
 10
251.9357561702948
 20
223.5646372176666
 30
0.0
 11
251.9357561702948
 21
221.5646372176666
 31
0.0
  0
LINE
  5
E9
330
1F
100
AcDbEntity
  8
0
  6
Continuous
 62
     7
100
AcDbLine
 10
251.9357561702948
 20
226.0646372176666
 30
0.0
 11
251.9357561702948
 21
223.5646372176666
 31
0.0
  0
LINE
  5
EA
330
1F
100
AcDbEntity
  8
0
  6
Continuous
 62
     2
100
AcDbLine
 10
249.2857561702948
 20
221.3014974968522
 30
0.0
 11
247.2857561702948
 21
221.3014974968522
 31
0.0
  0
LINE
  5
EB
330
1F
100
AcDbEntity
  8
0
  6
Continuous
 62
     7
100
AcDbLine
 10
247.2857561702948
 20
223.5646372176666
 30
0.0
 11
247.2857561702948
 21
228.5646372176666
 31
0.0
  0
LINE
  5
EC
330
1F
100
AcDbEntity
  8
0
  6
Continuous
 62
     7
100
AcDbLine
 10
252.4357561702948
 20
230.5646372176666
 30
0.0
 11
252.4357561702948
 21
221.5646372176666
 31
0.0
  0
LINE
  5
ED
330
1F
100
AcDbEntity
  8
0
  6
Continuous
 62
     7
100
AcDbLine
 10
253.0357561708835
 20
229.5646372180199
 30
0.0
 11
253.0357561708835
 21
222.5646372173134
 31
0.0
  0
LINE
  5
EE
330
1F
100
AcDbEntity
  8
0
  6
Continuous
 62
     7
100
AcDbLine
 10
253.0357561708835
 20
229.5646372180199
 30
0.0
 11
252.4357561702948
 21
230.5646372176666
 31
0.0
  0
LINE
  5
EF
330
1F
100
AcDbEntity
  8
0
  6
Continuous
 62
     7
100
AcDbLine
 10
244.0357561702948
 20
228.5646372176666
 30
0.0
 11
244.0357561702948
 21
230.5647372176666
 31
0.0
  0
LINE
  5
F0
330
1F
100
AcDbEntity
  8
0
  6
Continuous
 62
     7
100
AcDbLine
 10
244.0357561702948
 20
223.5646372176666
 30
0.0
 11
244.0357561702948
 21
228.5646372176666
 31
0.0
  0
LINE
  5
F1
330
1F
100
AcDbEntity
  8
0
  6
Continuous
 62
     7
100
AcDbLine
 10
244.0357561702948
 20
215.5546372176667
 30
0.0
 11
244.0357561702948
 21
223.5646372176666
 31
0.0
  0
LINE
  5
F2
330
1F
100
AcDbEntity
  8
0
  6
Continuous
 62
     7
100
AcDbLine
 10
247.2857561702948
 20
221.3014974968522
 30
0.0
 11
247.2857561702948
 21
220.5646372176666
 31
0.0
  0
LINE
  5
F3
330
1F
100
AcDbEntity
  8
0
  6
Continuous
 62
     7
100
AcDbLine
 10
247.2857561702948
 20
228.5646372176666
 30
0.0
 11
247.2857561702948
 21
240.6636753233433
 31
0.0
  0
LINE
  5
F4
330
1F
100
AcDbEntity
  8
0
  6
Continuous
 62
     7
100
AcDbLine
 10
247.2857561702948
 20
221.3014974968522
 30
0.0
 11
247.2857561702948
 21
223.5646372176666
 31
0.0
  0
LINE
  5
F5
330
1F
100
AcDbEntity
  8
0
  6
Continuous
 62
     7
100
AcDbLine
 10
247.2857561702948
 20
228.5646372176666
 30
0.0
 11
244.0357561702948
 21
228.5646372176666
 31
0.0
  0
LINE
  5
F6
330
1F
100
AcDbEntity
  8
0
  6
Continuous
 62
     7
100
AcDbLine
 10
249.2857561702948
 20
221.3014974968522
 30
0.0
 11
249.2857561702948
 21
220.5646372176666
 31
0.0
  0
LINE
  5
F7
330
1F
100
AcDbEntity
  8
0
  6
Continuous
 62
     7
100
AcDbLine
 10
249.2857561702948
 20
228.5646372176666
 30
0.0
 11
249.2857561702948
 21
240.6636753233433
 31
0.0
  0
LINE
  5
F8
330
1F
100
AcDbEntity
  8
0
  6
Continuous
 62
     7
100
AcDbLine
 10
249.2857561702948
 20
223.5646372176666
 30
0.0
 11
249.2857561702948
 21
228.5646372176666
 31
0.0
  0
LINE
  5
F9
330
1F
100
AcDbEntity
  8
0
  6
Continuous
 62
     7
100
AcDbLine
 10
249.2857561702948
 20
221.3014974968522
 30
0.0
 11
249.2857561702948
 21
223.5646372176666
 31
0.0
  0
LINE
  5
FA
330
1F
100
AcDbEntity
  8
0
  6
Continuous
 62
     7
100
AcDbLine
 10
251.9357561702948
 20
223.5646372176666
 30
0.0
 11
249.2857561702948
 21
223.5646372176666
 31
0.0
  0
LINE
  5
FB
330
1F
100
AcDbEntity
  8
0
  6
Continuous
 62
     7
100
AcDbLine
 10
247.2857561702948
 20
220.5646372176666
 30
0.0
 11
249.2857561702948
 21
220.5646372176666
 31
0.0
  0
LINE
  5
FC
330
1F
100
AcDbEntity
  8
0
  6
Continuous
 62
     7
100
AcDbLine
 10
251.9357561702948
 20
221.5646372176666
 30
0.0
 11
252.4357561702948
 21
221.5646372176666
 31
0.0
  0
LINE
  5
FD
330
1F
100
AcDbEntity
  8
0
  6
Continuous
 62
     7
100
AcDbLine
 10
247.2857561702948
 20
223.5646372176666
 30
0.0
 11
244.0357561702948
 21
223.5646372176666
 31
0.0
  0
LINE
  5
FE
330
1F
100
AcDbEntity
  8
0
  6
Continuous
 62
     7
100
AcDbLine
 10
253.0357561708835
 20
222.5646372173134
 30
0.0
 11
252.4357561702948
 21
221.5646372176666
 31
0.0
  0
LINE
  5
FF
330
1F
100
AcDbEntity
  8
0
  6
Continuous
 62
     7
100
AcDbLine
 10
259.5357561702948
 20
146.0646372176666
 30
0.0
 11
259.5357561702948
 21
151.0646372176666
 31
0.0
  0
LINE
  5
100
330
1F
100
AcDbEntity
  8
0
  6
Continuous
 62
     2
100
AcDbLine
 10
257.5357561702948
 20
151.0646372176666
 30
0.0
 11
257.5357561702948
 21
146.0646372176666
 31
0.0
  0
LINE
  5
101
330
1F
100
AcDbEntity
  8
0
  6
Continuous
 62
     7
100
AcDbLine
 10
259.5357561702948
 20
151.0646372176666
 30
0.0
 11
257.5357561702948
 21
151.0646372176666
 31
0.0
  0
LINE
  5
102
330
1F
100
AcDbEntity
  8
0
  6
Continuous
 62
     7
100
AcDbLine
 10
257.5357561702948
 20
146.0646372176666
 30
0.0
 11
259.5357561702948
 21
146.0646372176666
 31
0.0
  0
LINE
  5
103
330
1F
100
AcDbEntity
  8
0
  6
Continuous
 62
     7
100
AcDbLine
 10
250.3857561702948
 20
288.8171387821228
 30
0.0
 11
250.3857561702948
 21
292.8121356532105
 31
0.0
  0
LINE
  5
104
330
1F
100
AcDbEntity
  8
0
  6
Continuous
 62
     7
100
AcDbLine
 10
245.6508460404384
 20
295.3090086976403
 30
0.0
 11
245.6508460404384
 21
295.3146372176667
 31
0.0
  0
LINE
  5
105
330
1F
100
AcDbEntity
  8
0
  6
Continuous
 62
     7
100
AcDbLine
 10
245.6508460404384
 20
295.3146372176667
 30
0.0
 11
250.3857561702948
 21
295.3146372176667
 31
0.0
  0
LINE
  5
106
330
1F
100
AcDbEntity
  8
0
  6
Continuous
 62
     2
100
AcDbLine
 10
245.6508460404384
 20
286.320265737693
 30
0.0
 11
250.3857561702948
 21
286.320265737693
 31
0.0
  0
LINE
  5
107
330
1F
100
AcDbEntity
  8
0
  6
Continuous
 62
     7
100
AcDbLine
 10
245.6508460404384
 20
286.3146372176667
 30
0.0
 11
250.3857561702948
 21
286.3146372176667
 31
0.0
  0
LINE
  5
108
330
1F
100
AcDbEntity
  8
0
  6
Continuous
 62
     7
100
AcDbLine
 10
245.6508460404384
 20
288.8171387821228
 30
0.0
 11
245.6508460404384
 21
292.8121356532105
 31
0.0
  0
LINE
  5
109
330
1F
100
AcDbEntity
  8
0
  6
Continuous
 62
     7
100
AcDbLine
 10
249.2857561702948
 20
240.8646372176666
 30
0.0
 11
249.2857561702948
 21
252.8646372176666
 31
0.0
  0
LINE
  5
10A
330
1F
100
AcDbEntity
  8
0
  6
Continuous
 62
     7
100
AcDbLine
 10
249.2857561702948
 20
240.8646372176666
 30
0.0
 11
249.2857561702948
 21
240.6636753233433
 31
0.0
  0
LINE
  5
10B
330
1F
100
AcDbEntity
  8
0
  6
Continuous
 62
     7
100
AcDbLine
 10
250.3857561702948
 20
288.8171387821228
 30
0.0
 11
250.3857561702948
 21
286.320265737693
 31
0.0
  0
LINE
  5
10C
330
1F
100
AcDbEntity
  8
0
  6
Continuous
 62
     7
100
AcDbLine
 10
245.6508460404384
 20
286.3146372176667
 30
0.0
 11
245.6508460404384
 21
286.320265737693
 31
0.0
  0
LINE
  5
10D
330
1F
100
AcDbEntity
  8
0
  6
Continuous
 62
     7
100
AcDbLine
 10
247.2857561702948
 20
240.8646372176666
 30
0.0
 11
247.2857561702948
 21
240.6636753233433
 31
0.0
  0
LINE
  5
10E
330
1F
100
AcDbEntity
  8
0
  6
Continuous
 62
     7
100
AcDbLine
 10
245.6508460404384
 20
286.320265737693
 30
0.0
 11
245.6508460404384
 21
288.8171387821228
 31
0.0
  0
LINE
  5
10F
330
1F
100
AcDbEntity
  8
0
  6
Continuous
 62
     7
100
AcDbLine
 10
242.2857561702948
 20
240.8646372176666
 30
0.0
 11
247.2857561702948
 21
240.8646372176666
 31
0.0
  0
LINE
  5
110
330
1F
100
AcDbEntity
  8
0
  6
Continuous
 62
     7
100
AcDbLine
 10
247.2857561702948
 20
240.8646372176666
 30
0.0
 11
249.2857561702948
 21
240.8646372176666
 31
0.0
  0
LINE
  5
111
330
1F
100
AcDbEntity
  8
0
  6
Continuous
 62
     2
100
AcDbLine
 10
249.2857561702948
 20
240.6636753233433
 30
0.0
 11
247.2857561702948
 21
240.6636753233433
 31
0.0
  0
LINE
  5
112
330
1F
100
AcDbEntity
  8
0
  6
Continuous
 62
     2
100
AcDbLine
 10
238.0357561702948
 20
236.0646372176666
 30
0.0
 11
238.0357561702948
 21
230.5647372176666
 31
0.0
  0
LINE
  5
113
330
1F
100
AcDbEntity
  8
0
  6
Continuous
 62
     7
100
AcDbLine
 10
244.0357561702948
 20
236.0646372176666
 30
0.0
 11
244.0357561702948
 21
230.5647372176666
 31
0.0
  0
LINE
  5
114
330
1F
100
AcDbEntity
  8
0
  6
Continuous
 62
     7
100
AcDbLine
 10
244.0357561702948
 20
236.0646372176666
 30
0.0
 11
238.0357561702948
 21
236.0646372176666
 31
0.0
  0
LINE
  5
115
330
1F
100
AcDbEntity
  8
0
  6
Continuous
 62
     7
100
AcDbLine
 10
238.0357561702948
 20
230.5647372176666
 30
0.0
 11
244.0357561702948
 21
230.5647372176666
 31
0.0
  0
LINE
  5
116
330
1F
100
AcDbEntity
  8
0
  6
Continuous
 62
     7
100
AcDbLine
 10
242.2857561702948
 20
252.8646372176666
 30
0.0
 11
249.2857561702948
 21
252.8646372176666
 31
0.0
  0
LINE
  5
117
330
1F
100
AcDbEntity
  8
0
  6
Continuous
 62
     2
100
AcDbLine
 10
245.6508460404384
 20
295.3090086976403
 30
0.0
 11
250.3857561702948
 21
295.3090086976403
 31
0.0
  0
LINE
  5
118
330
1F
100
AcDbEntity
  8
0
  6
Continuous
 62
     2
100
AcDbLine
 10
245.6508460404384
 20
292.8121356532105
 30
0.0
 11
250.3857561702948
 21
292.8121356532105
 31
0.0
  0
LINE
  5
119
330
1F
100
AcDbEntity
  8
0
  6
Continuous
 62
     7
100
AcDbLine
 10
250.3857561702948
 20
295.3090086976403
 30
0.0
 11
250.3857561702948
 21
292.8121356532105
 31
0.0
  0
LINE
  5
11A
330
1F
100
AcDbEntity
  8
0
  6
Continuous
 62
     2
100
AcDbLine
 10
245.6508460404384
 20
288.8171387821228
 30
0.0
 11
250.3857561702948
 21
288.8171387821228
 31
0.0
  0
LINE
  5
11B
330
1F
100
AcDbEntity
  8
0
  6
Continuous
 62
     7
100
AcDbLine
 10
245.6508460404384
 20
292.8121356532105
 30
0.0
 11
245.6508460404384
 21
295.3090086976403
 31
0.0
  0
LINE
  5
11C
330
1F
100
AcDbEntity
  8
0
  6
Continuous
 62
     2
100
AcDbLine
 10
242.2857561702948
 20
240.8646372176666
 30
0.0
 11
242.2857561702948
 21
252.8646372176666
 31
0.0
  0
LINE
  5
11D
330
1F
100
AcDbEntity
  8
0
  6
Continuous
 62
     7
100
AcDbLine
 10
245.6508460404384
 20
256.5995473475231
 30
0.0
 11
245.6508460404384
 21
286.3146372176667
 31
0.0
  0
LINE
  5
11E
330
1F
100
AcDbEntity
  8
0
  6
Continuous
 62
     7
100
AcDbLine
 10
187.2857561702948
 20
333.8297270878102
 30
0.0
 11
157.2206663001511
 21
333.8297270878102
 31
0.0
  0
LINE
  5
11F
330
1F
100
AcDbEntity
  8
0
  6
Continuous
 62
     7
100
AcDbLine
 10
148.4206663001512
 20
295.3146372176667
 30
0.0
 11
143.6857561702948
 21
295.3146372176667
 31
0.0
  0
LINE
  5
120
330
1F
100
AcDbEntity
  8
0
  6
Continuous
 62
     7
100
AcDbLine
 10
149.6857561702948
 20
256.5646372176666
 30
0.0
 11
149.6857561702948
 21
325.0646372176667
 31
0.0
  0
LINE
  5
121
330
1F
100
AcDbEntity
  8
0
  6
Continuous
 62
     7
100
AcDbLine
 10
153.6857561702948
 20
325.0646372176667
 30
0.0
 11
153.6857561702948
 21
256.5646372176666
 31
0.0
  0
LINE
  5
122
330
1F
100
AcDbEntity
  8
0
  6
Continuous
 62
     7
100
AcDbLine
 10
148.4206663001512
 20
295.3146372176667
 30
0.0
 11
148.4206663001512
 21
295.3090086976403
 31
0.0
  0
LINE
  5
123
330
1F
100
AcDbEntity
  8
0
  6
Continuous
 62
     7
100
AcDbLine
 10
148.4206663001512
 20
325.0297270878103
 30
0.0
 11
148.4206663001512
 21
295.3146372176667
 31
0.0
  0
LINE
  5
124
330
1F
100
AcDbEntity
  8
0
  6
Continuous
 62
     7
100
AcDbLine
 10
143.6857561702948
 20
292.8121356532105
 30
0.0
 11
143.6857561702948
 21
295.3090086976403
 31
0.0
  0
LINE
  5
125
330
1F
100
AcDbEntity
  8
0
  6
Continuous
 62
     2
100
AcDbLine
 10
148.4206663001512
 20
295.3090086976403
 30
0.0
 11
143.6857561702948
 21
295.3090086976403
 31
0.0
  0
LINE
  5
126
330
1F
100
AcDbEntity
  8
0
  6
Continuous
 62
     7
100
AcDbLine
 10
148.4206663001512
 20
295.3090086976403
 30
0.0
 11
148.4206663001512
 21
292.8121356532105
 31
0.0
  0
LINE
  5
127
330
1F
100
AcDbEntity
  8
0
  6
Continuous
 62
     2
100
AcDbLine
 10
148.4206663001512
 20
292.8121356532105
 30
0.0
 11
143.6857561702948
 21
292.8121356532105
 31
0.0
  0
LINE
  5
128
330
1F
100
AcDbEntity
  8
0
  6
Continuous
 62
     7
100
AcDbLine
 10
148.4206663001512
 20
292.8121356532105
 30
0.0
 11
148.4206663001512
 21
288.8171387821228
 31
0.0
  0
LINE
  5
129
330
1F
100
AcDbEntity
  8
0
  6
Continuous
 62
     7
100
AcDbLine
 10
143.6857561702948
 20
288.8171387821228
 30
0.0
 11
143.6857561702948
 21
292.8121356532105
 31
0.0
  0
LINE
  5
12A
330
1F
100
AcDbEntity
  8
0
  6
Continuous
 62
     7
100
AcDbLine
 10
148.4206663001512
 20
288.8171387821228
 30
0.0
 11
148.4206663001512
 21
286.320265737693
 31
0.0
  0
LINE
  5
12B
330
1F
100
AcDbEntity
  8
0
  6
Continuous
 62
     2
100
AcDbLine
 10
148.4206663001512
 20
288.8171387821228
 30
0.0
 11
143.6857561702948
 21
288.8171387821228
 31
0.0
  0
LINE
  5
12C
330
1F
100
AcDbEntity
  8
0
  6
Continuous
 62
     7
100
AcDbLine
 10
143.6857561702948
 20
286.320265737693
 30
0.0
 11
143.6857561702948
 21
288.8171387821228
 31
0.0
  0
LINE
  5
12D
330
1F
100
AcDbEntity
  8
0
  6
Continuous
 62
     7
100
AcDbLine
 10
144.7857561702948
 20
240.8646372176666
 30
0.0
 11
144.7857561702948
 21
240.6636753233433
 31
0.0
  0
LINE
  5
12E
330
1F
100
AcDbEntity
  8
0
  6
Continuous
 62
     7
100
AcDbLine
 10
144.7857561702948
 20
240.8646372176666
 30
0.0
 11
144.7857561702948
 21
252.8646372176666
 31
0.0
  0
LINE
  5
12F
330
1F
100
AcDbEntity
  8
0
  6
Continuous
 62
     7
100
AcDbLine
 10
144.7857561702948
 20
228.5646372176666
 30
0.0
 11
144.7857561702948
 21
240.6636753233433
 31
0.0
  0
LINE
  5
130
330
1F
100
AcDbEntity
  8
0
  6
Continuous
 62
     7
100
AcDbLine
 10
151.7857561702948
 20
252.8646372176666
 30
0.0
 11
144.7857561702948
 21
252.8646372176666
 31
0.0
  0
LINE
  5
131
330
1F
100
AcDbEntity
  8
0
  6
Continuous
 62
     2
100
AcDbLine
 10
151.7857561702948
 20
252.8646372176666
 30
0.0
 11
151.7857561702948
 21
240.8646372176666
 31
0.0
  0
LINE
  5
132
330
1F
100
AcDbEntity
  8
0
  6
Continuous
 62
     7
100
AcDbLine
 10
146.7857561702948
 20
223.5646372176666
 30
0.0
 11
146.7857561702948
 21
221.3014974968522
 31
0.0
  0
LINE
  5
133
330
1F
100
AcDbEntity
  8
0
  6
Continuous
 62
     7
100
AcDbLine
 10
146.7857561702948
 20
240.8646372176666
 30
0.0
 11
146.7857561702948
 21
240.6636753233433
 31
0.0
  0
LINE
  5
134
330
1F
100
AcDbEntity
  8
0
  6
Continuous
 62
     7
100
AcDbLine
 10
146.7857561702948
 20
240.6636753233433
 30
0.0
 11
146.7857561702948
 21
228.5646372176666
 31
0.0
  0
LINE
  5
135
330
1F
100
AcDbEntity
  8
0
  6
Continuous
 62
     2
100
AcDbLine
 10
146.7857561702948
 20
240.6636753233433
 30
0.0
 11
144.7857561702948
 21
240.6636753233433
 31
0.0
  0
LINE
  5
136
330
1F
100
AcDbEntity
  8
0
  6
Continuous
 62
     7
100
AcDbLine
 10
146.7857561702948
 20
240.8646372176666
 30
0.0
 11
144.7857561702948
 21
240.8646372176666
 31
0.0
  0
LINE
  5
137
330
1F
100
AcDbEntity
  8
0
  6
Continuous
 62
     7
100
AcDbLine
 10
151.7857561702948
 20
240.8646372176666
 30
0.0
 11
146.7857561702948
 21
240.8646372176666
 31
0.0
  0
LINE
  5
138
330
1F
100
AcDbEntity
  8
0
  6
Continuous
 62
     7
100
AcDbLine
 10
148.4206663001512
 20
286.320265737693
 30
0.0
 11
148.4206663001512
 21
286.3146372176666
 31
0.0
  0
LINE
  5
139
330
1F
100
AcDbEntity
  8
0
  6
Continuous
 62
     7
100
AcDbLine
 10
148.4206663001512
 20
286.3146372176666
 30
0.0
 11
143.6857561702948
 21
286.3146372176666
 31
0.0
  0
LINE
  5
13A
330
1F
100
AcDbEntity
  8
0
  6
Continuous
 62
     2
100
AcDbLine
 10
148.4206663001512
 20
286.320265737693
 30
0.0
 11
143.6857561702948
 21
286.320265737693
 31
0.0
  0
LINE
  5
13B
330
1F
100
AcDbEntity
  8
0
  6
Continuous
 62
     2
100
AcDbLine
 10
156.0357561702948
 20
151.0646372176666
 30
0.0
 11
156.0357561702948
 21
230.5647372176666
 31
0.0
  0
LINE
  5
13C
330
1F
100
AcDbEntity
  8
0
  6
Continuous
 62
     7
100
AcDbLine
 10
150.0357561702948
 20
151.0646372176666
 30
0.0
 11
136.5357561702948
 21
151.0646372176666
 31
0.0
  0
LINE
  5
13D
330
1F
100
AcDbEntity
  8
0
  6
Continuous
 62
     2
100
AcDbLine
 10
136.5357561702948
 20
146.0646372176666
 30
0.0
 11
136.5357561702948
 21
151.0646372176666
 31
0.0
  0
LINE
  5
13E
330
1F
100
AcDbEntity
  8
0
  6
Continuous
 62
     7
100
AcDbLine
 10
134.5357561702948
 20
146.0646372176666
 30
0.0
 11
134.5357561702948
 21
151.0646372176666
 31
0.0
  0
LINE
  5
13F
330
1F
100
AcDbEntity
  8
0
  6
Continuous
 62
     7
100
AcDbLine
 10
134.5357561702948
 20
146.0646372176666
 30
0.0
 11
136.5357561702948
 21
146.0646372176666
 31
0.0
  0
LINE
  5
140
330
1F
100
AcDbEntity
  8
0
  6
Continuous
 62
     7
100
AcDbLine
 10
136.5357561702948
 20
151.0646372176666
 30
0.0
 11
134.5357561702948
 21
151.0646372176666
 31
0.0
  0
LINE
  5
141
330
1F
100
AcDbEntity
  8
0
  6
Continuous
 62
     7
100
AcDbLine
 10
144.7857561702948
 20
220.5646372176666
 30
0.0
 11
144.7857561702948
 21
221.3014974968522
 31
0.0
  0
LINE
  5
142
330
1F
100
AcDbEntity
  8
0
  6
Continuous
 62
     7
100
AcDbLine
 10
146.7857561702948
 20
221.3014974968522
 30
0.0
 11
146.7857561702948
 21
220.5646372176666
 31
0.0
  0
LINE
  5
143
330
1F
100
AcDbEntity
  8
0
  6
Continuous
 62
     7
100
AcDbLine
 10
142.1357561702948
 20
221.5646372176666
 30
0.0
 11
142.1357561702948
 21
223.5646372176666
 31
0.0
  0
LINE
  5
144
330
1F
100
AcDbEntity
  8
0
  6
Continuous
 62
     7
100
AcDbLine
 10
142.1357561702948
 20
221.5646372176666
 30
0.0
 11
141.6357561702948
 21
221.5646372176666
 31
0.0
  0
LINE
  5
145
330
1F
100
AcDbEntity
  8
0
  6
Continuous
 62
     7
100
AcDbLine
 10
144.7857561702948
 20
221.3014974968522
 30
0.0
 11
144.7857561702948
 21
223.5646372176666
 31
0.0
  0
LINE
  5
146
330
1F
100
AcDbEntity
  8
0
  6
Continuous
 62
     7
100
AcDbLine
 10
144.7857561702948
 20
220.5646372176666
 30
0.0
 11
146.7857561702948
 21
220.5646372176666
 31
0.0
  0
LINE
  5
147
330
1F
100
AcDbEntity
  8
0
  6
Continuous
 62
     7
100
AcDbLine
 10
141.0357561702948
 20
226.0646372176666
 30
0.0
 11
141.0357561702948
 21
222.5646372176666
 31
0.0
  0
LINE
  5
148
330
1F
100
AcDbEntity
  8
0
  6
Continuous
 62
     7
100
AcDbLine
 10
150.0357561702948
 20
236.0646372176666
 30
0.0
 11
150.0357561702948
 21
230.5647372176666
 31
0.0
  0
LINE
  5
149
330
1F
100
AcDbEntity
  8
0
  6
Continuous
 62
     7
100
AcDbLine
 10
150.0357561702948
 20
228.5646372176666
 30
0.0
 11
150.0357561702948
 21
230.5647372176666
 31
0.0
  0
LINE
  5
14A
330
1F
100
AcDbEntity
  8
0
  6
Continuous
 62
     7
100
AcDbLine
 10
150.0357561702948
 20
223.5646372176666
 30
0.0
 11
150.0357561702948
 21
228.5646372176666
 31
0.0
  0
LINE
  5
14B
330
1F
100
AcDbEntity
  8
0
  6
Continuous
 62
     2
100
AcDbLine
 10
144.7857561702948
 20
221.3014974968522
 30
0.0
 11
146.7857561702948
 21
221.3014974968522
 31
0.0
  0
LINE
  5
14C
330
1F
100
AcDbEntity
  8
0
  6
Continuous
 62
     7
100
AcDbLine
 10
146.7857561702948
 20
223.5646372176666
 30
0.0
 11
150.0357561702948
 21
223.5646372176666
 31
0.0
  0
LINE
  5
14D
330
1F
100
AcDbEntity
  8
0
  6
Continuous
 62
     7
100
AcDbLine
 10
144.7857561702948
 20
223.5646372176666
 30
0.0
 11
144.7857561702948
 21
228.5646372176666
 31
0.0
  0
LINE
  5
14E
330
1F
100
AcDbEntity
  8
0
  6
Continuous
 62
     7
100
AcDbLine
 10
142.1357561702948
 20
223.5646372176666
 30
0.0
 11
142.1357561702948
 21
228.5646372176666
 31
0.0
  0
LINE
  5
14F
330
1F
100
AcDbEntity
  8
0
  6
Continuous
 62
     7
100
AcDbLine
 10
142.1357561702948
 20
223.5646372176666
 30
0.0
 11
144.7857561702948
 21
223.5646372176666
 31
0.0
  0
LINE
  5
150
330
1F
100
AcDbEntity
  8
0
  6
Continuous
 62
     7
100
AcDbLine
 10
141.0357561702948
 20
229.5646372176666
 30
0.0
 11
141.0357561702948
 21
226.0646372176666
 31
0.0
  0
LINE
  5
151
330
1F
100
AcDbEntity
  8
0
  6
Continuous
 62
     7
100
AcDbLine
 10
146.7857561702948
 20
228.5646372176666
 30
0.0
 11
146.7857561702948
 21
223.5646372176666
 31
0.0
  0
LINE
  5
152
330
1F
100
AcDbEntity
  8
0
  6
Continuous
 62
     7
100
AcDbLine
 10
141.6357561702948
 20
226.0646372176666
 30
0.0
 11
141.6357561702948
 21
221.5646372176666
 31
0.0
  0
LINE
  5
153
330
1F
100
AcDbEntity
  8
0
  6
Continuous
 62
     7
100
AcDbLine
 10
141.6357561702948
 20
230.5646372176666
 30
0.0
 11
141.6357561702948
 21
226.0646372176666
 31
0.0
  0
LINE
  5
154
330
1F
100
AcDbEntity
  8
0
  6
Continuous
 62
     7
100
AcDbLine
 10
156.0357561702948
 20
236.0646372176666
 30
0.0
 11
150.0357561702948
 21
236.0646372176666
 31
0.0
  0
LINE
  5
155
330
1F
100
AcDbEntity
  8
0
  6
Continuous
 62
     7
100
AcDbLine
 10
142.1357561702948
 20
228.5646372176666
 30
0.0
 11
144.7857561702948
 21
228.5646372176666
 31
0.0
  0
LINE
  5
156
330
1F
100
AcDbEntity
  8
0
  6
Continuous
 62
     7
100
AcDbLine
 10
142.1357561702948
 20
228.5646372176666
 30
0.0
 11
142.1357561702948
 21
230.5646372176666
 31
0.0
  0
LINE
  5
157
330
1F
100
AcDbEntity
  8
0
  6
Continuous
 62
     7
100
AcDbLine
 10
142.1357561702948
 20
230.5646372176666
 30
0.0
 11
141.6357561702948
 21
230.5646372176666
 31
0.0
  0
LINE
  5
158
330
1F
100
AcDbEntity
  8
0
  6
Continuous
 62
     7
100
AcDbLine
 10
146.7857561702948
 20
228.5646372176666
 30
0.0
 11
150.0357561702948
 21
228.5646372176666
 31
0.0
  0
LINE
  5
159
330
1F
100
AcDbEntity
  8
0
  6
Continuous
 62
     2
100
AcDbLine
 10
156.0357561702948
 20
236.0646372176666
 30
0.0
 11
156.0357561702948
 21
230.5647372176666
 31
0.0
  0
LINE
  5
15A
330
1F
100
AcDbEntity
  8
0
  6
Continuous
 62
     7
100
AcDbLine
 10
134.5357561702948
 20
160.2833962412482
 30
0.0
 11
150.0357561702948
 21
160.2833962412482
 31
0.0
  0
LINE
  5
15B
330
1F
100
AcDbEntity
  8
0
  6
Continuous
 62
     7
100
AcDbLine
 10
134.5357561702948
 20
151.0646372176666
 30
0.0
 11
134.5357561702948
 21
160.2833962412482
 31
0.0
  0
LINE
  5
15C
330
1F
100
AcDbEntity
  8
0
  6
Continuous
 62
     7
100
AcDbLine
 10
150.0357561702948
 20
230.5647372176666
 30
0.0
 11
156.0357561702948
 21
230.5647372176666
 31
0.0
  0
LINE
  5
15D
330
1F
100
AcDbEntity
  8
0
  6
Continuous
 62
     7
100
AcDbLine
 10
150.0357561702948
 20
215.5546372176667
 30
0.0
 11
150.0357561702948
 21
223.5646372176666
 31
0.0
  0
LINE
  5
15E
330
1F
100
AcDbEntity
  8
0
  6
Continuous
 62
     7
100
AcDbLine
 10
134.5357561702948
 20
215.5546372176667
 30
0.0
 11
150.0357561702948
 21
215.5546372176667
 31
0.0
  0
LINE
  5
15F
330
1F
100
AcDbEntity
  8
0
  6
Continuous
 62
     7
100
AcDbLine
 10
148.4206663001512
 20
286.3146372176666
 30
0.0
 11
148.4206663001512
 21
256.5995473475231
 31
0.0
  0
LINE
  5
160
330
1F
100
AcDbEntity
  8
0
  6
Continuous
 62
     7
100
AcDbLine
 10
134.5357561702948
 20
160.2833962412482
 30
0.0
 11
134.5357561702948
 21
215.5546372176667
 31
0.0
  0
LINE
  5
161
330
1F
100
AcDbEntity
  8
0
  6
Continuous
 62
     7
100
AcDbLine
 10
141.0357561702948
 20
222.5646372176666
 30
0.0
 11
141.6357561702948
 21
221.5646372176666
 31
0.0
  0
LINE
  5
162
330
1F
100
AcDbEntity
  8
0
  6
Continuous
 62
     7
100
AcDbLine
 10
141.0357561702948
 20
229.5646372176666
 30
0.0
 11
141.6357561702948
 21
230.5646372176666
 31
0.0
  0
LINE
  5
163
330
1F
100
AcDbEntity
  8
0
  6
Continuous
 62
     7
100
AcDbLine
 10
221.5526561715788
 20
254.4234592635137
 30
0.0
 11
221.5526561715788
 21
255.4627134290199
 31
0.0
  0
LINE
  5
164
330
1F
100
AcDbEntity
  8
0
  6
Continuous
 62
     7
100
AcDbLine
 10
221.5526561715788
 20
253.7306626214512
 30
0.0
 11
221.5526561715788
 21
254.4234592635137
 31
0.0
  0
LINE
  5
165
330
1F
100
AcDbEntity
  8
0
  6
Continuous
 62
     2
100
AcDbLine
 10
221.4399596553644
 20
253.8999562577205
 30
0.0
 11
221.4399596553644
 21
255.6320070652893
 31
0.0
  0
LINE
  5
166
330
1F
100
AcDbEntity
  8
0
  6
Continuous
 62
     7
100
AcDbLine
 10
221.4399596553644
 20
255.6320070652893
 30
0.0
 11
219.0095124753785
 21
260.1672832456994
 31
0.0
  0
LINE
  5
167
330
1F
100
AcDbEntity
  8
0
  6
Continuous
 62
     2
100
AcDbLine
 10
179.8916289966564
 20
262.0202356329431
 30
0.0
 11
179.8916289966564
 21
260.2881848253743
 31
0.0
  0
LINE
  5
168
330
1F
100
AcDbEntity
  8
0
  6
Continuous
 62
     2
100
AcDbLine
 10
214.1798833439331
 20
262.0202356329431
 30
0.0
 11
214.1798833439331
 21
260.2881848253743
 31
0.0
  0
LINE
  5
169
330
1F
100
AcDbEntity
  8
0
  6
Continuous
 62
     7
100
AcDbLine
 10
179.8916289966564
 20
260.2881848253743
 30
0.0
 11
214.1798833439331
 21
260.2881848253743
 31
0.0
  0
LINE
  5
16A
330
1F
100
AcDbEntity
  8
0
  6
Continuous
 62
     7
100
AcDbLine
 10
179.8916289966564
 20
262.0202356329431
 30
0.0
 11
214.1798833439331
 21
262.0202356329431
 31
0.0
  0
LINE
  5
16B
330
1F
100
AcDbEntity
  8
0
  6
Continuous
 62
     7
100
AcDbLine
 10
172.5188561690107
 20
254.4234592634209
 30
0.0
 11
172.5188561690107
 21
253.7306626214512
 31
0.0
  0
LINE
  5
16C
330
1F
100
AcDbEntity
  8
0
  6
Continuous
 62
     7
100
AcDbLine
 10
172.5188561690107
 20
255.46271342902
 30
0.0
 11
172.5188561690107
 21
254.4234592634209
 31
0.0
  0
LINE
  5
16D
330
1F
100
AcDbEntity
  8
0
  6
Continuous
 62
     2
100
AcDbLine
 10
175.0619998652111
 20
260.1672832456993
 30
0.0
 11
175.0619998652111
 21
258.4352324381306
 31
0.0
  0
LINE
  5
16E
330
1F
100
AcDbEntity
  8
0
  6
Continuous
 62
     2
100
AcDbLine
 10
172.6315526852252
 20
253.8999562577205
 30
0.0
 11
172.6315526852252
 21
255.6320070652893
 31
0.0
  0
LINE
  5
16F
330
1F
100
AcDbEntity
  8
0
  6
Continuous
 62
     7
100
AcDbLine
 10
172.6315526852252
 20
255.6320070652893
 30
0.0
 11
175.0619998652111
 21
260.1672832456993
 31
0.0
  0
LINE
  5
170
330
1F
100
AcDbEntity
  8
0
  6
Continuous
 62
     7
100
AcDbLine
 10
172.6315526852252
 20
253.8999562577205
 30
0.0
 11
175.0619998652111
 21
258.4352324381306
 31
0.0
  0
LINE
  5
171
330
1F
100
AcDbEntity
  8
0
  6
Continuous
 62
     2
100
AcDbLine
 10
172.5188561690107
 20
253.7306626214512
 30
0.0
 11
221.5526561715788
 21
253.7306626214512
 31
0.0
  0
LINE
  5
172
330
1F
100
AcDbEntity
  8
0
  6
Continuous
 62
     2
100
AcDbLine
 10
219.0095124753785
 20
260.1672832456994
 30
0.0
 11
219.0095124753785
 21
258.4352324381306
 31
0.0
  0
LINE
  5
173
330
1F
100
AcDbEntity
  8
0
  6
Continuous
 62
     7
100
AcDbLine
 10
157.1857561702948
 20
332.5646372176667
 30
0.0
 11
236.8857561702948
 21
332.5646372176667
 31
0.0
  0
LINE
  5
174
330
1F
100
AcDbEntity
  8
0
  6
Continuous
 62
     2
100
AcDbLine
 10
169.7337752063579
 20
252.8646372176666
 30
0.0
 11
224.3377371342317
 21
252.8646372176666
 31
0.0
  0
LINE
  5
175
330
1F
100
AcDbEntity
  8
0
  6
Continuous
 62
     7
100
AcDbLine
 10
236.8857561702948
 20
328.5646372176667
 30
0.0
 11
157.1857561702948
 21
328.5646372176667
 31
0.0
  0
LINE
  5
176
330
1F
100
AcDbEntity
  8
0
  6
Continuous
 62
     7
100
AcDbLine
 10
157.1857561702948
 20
253.0646372176666
 30
0.0
 11
170.5740842489819
 21
253.0646372176666
 31
0.0
  0
LINE
  5
177
330
1F
100
AcDbEntity
  8
0
  6
Continuous
 62
     7
100
AcDbLine
 10
223.4974319601357
 20
253.0646372176667
 30
0.0
 11
236.8857561702948
 21
253.0646372176667
 31
0.0
  0
LINE
  5
178
330
1F
100
AcDbEntity
  8
0
  6
Continuous
 62
     7
100
AcDbLine
 10
188.0357561702948
 20
240.0646372176666
 30
0.0
 11
188.0357561702948
 21
240.8646372176666
 31
0.0
  0
LINE
  5
179
330
1F
100
AcDbEntity
  8
0
  6
Continuous
 62
     7
100
AcDbLine
 10
206.0357561702948
 20
240.8646372176666
 30
0.0
 11
206.0357561702948
 21
240.0646372176666
 31
0.0
  0
LINE
  5
17A
330
1F
100
AcDbEntity
  8
0
  6
Continuous
 62
     7
100
AcDbLine
 10
187.8857561702948
 20
238.0646372176666
 30
0.0
 11
188.0357561702948
 21
238.0646372176666
 31
0.0
  0
LINE
  5
17B
330
1F
100
AcDbEntity
  8
0
  6
Continuous
 62
     7
100
AcDbLine
 10
183.7857561702948
 20
238.0646372176666
 30
0.0
 11
187.8857561702948
 21
238.0646372176666
 31
0.0
  0
LINE
  5
17C
330
1F
100
AcDbEntity
  8
0
  6
Continuous
 62
     7
100
AcDbLine
 10
188.0357561702948
 20
236.0646372176666
 30
0.0
 11
188.0357561702948
 21
238.0646372176666
 31
0.0
  0
LINE
  5
17D
330
1F
100
AcDbEntity
  8
0
  6
Continuous
 62
     7
100
AcDbLine
 10
188.0357561702948
 20
238.0646372176666
 30
0.0
 11
188.0357561702948
 21
240.0646372176666
 31
0.0
  0
LINE
  5
17E
330
1F
100
AcDbEntity
  8
0
  6
Continuous
 62
     7
100
AcDbLine
 10
191.0357561702948
 20
240.3374204989537
 30
0.0
 11
191.0357561702948
 21
240.0646372176666
 31
0.0
  0
LINE
  5
17F
330
1F
100
AcDbEntity
  8
0
  6
Continuous
 62
     7
100
AcDbLine
 10
191.0357561702948
 20
240.0646372176666
 30
0.0
 11
188.0357561702948
 21
240.0646372176666
 31
0.0
  0
LINE
  5
180
330
1F
100
AcDbEntity
  8
0
  6
Continuous
 62
     7
100
AcDbLine
 10
187.8857561702948
 20
238.6118275451536
 30
0.0
 11
187.8857561702948
 21
238.0646372176666
 31
0.0
  0
LINE
  5
181
330
1F
100
AcDbEntity
  8
0
  6
Continuous
 62
     7
100
AcDbLine
 10
183.7857561702948
 20
236.0646372176666
 30
0.0
 11
183.7857561702948
 21
238.0646372176666
 31
0.0
  0
LINE
  5
182
330
1F
100
AcDbEntity
  8
0
  6
Continuous
 62
     7
100
AcDbLine
 10
206.1857561702948
 20
238.0646372176666
 30
0.0
 11
210.2857561702948
 21
238.0646372176666
 31
0.0
  0
LINE
  5
183
330
1F
100
AcDbEntity
  8
0
  6
Continuous
 62
     7
100
AcDbLine
 10
206.0357561702948
 20
238.0646372176666
 30
0.0
 11
206.1857561702948
 21
238.0646372176666
 31
0.0
  0
LINE
  5
184
330
1F
100
AcDbEntity
  8
0
  6
Continuous
 62
     7
100
AcDbLine
 10
206.0357561702948
 20
236.0646372176666
 30
0.0
 11
206.0357561702948
 21
238.0646372176666
 31
0.0
  0
LINE
  5
185
330
1F
100
AcDbEntity
  8
0
  6
Continuous
 62
     7
100
AcDbLine
 10
182.0357561702948
 20
240.8146372176667
 30
0.0
 11
182.0357561702948
 21
236.0646372176666
 31
0.0
  0
LINE
  5
186
330
1F
100
AcDbEntity
  8
0
  6
Continuous
 62
     7
100
AcDbLine
 10
187.8857561702948
 20
238.6118275451536
 30
0.0
 11
187.8857561702948
 21
240.8146372176667
 31
0.0
  0
LINE
  5
187
330
1F
100
AcDbEntity
  8
0
  6
Continuous
 62
     7
100
AcDbLine
 10
238.0357561702948
 20
236.0646372176666
 30
0.0
 11
210.2857561702948
 21
236.0646372176666
 31
0.0
  0
LINE
  5
188
330
1F
100
AcDbEntity
  8
0
  6
Continuous
 62
     7
100
AcDbLine
 10
183.7857561702948
 20
236.0646372176666
 30
0.0
 11
156.0357561702948
 21
236.0646372176666
 31
0.0
  0
LINE
  5
189
330
1F
100
AcDbEntity
  8
0
  6
Continuous
 62
     7
100
AcDbLine
 10
182.0357561702948
 20
240.8146372176667
 30
0.0
 11
187.8857561702948
 21
240.8146372176667
 31
0.0
  0
LINE
  5
18A
330
1F
100
AcDbEntity
  8
0
  6
Continuous
 62
     7
100
AcDbLine
 10
221.4399596553644
 20
253.8999562577205
 30
0.0
 11
219.0095124753785
 21
258.4352324381306
 31
0.0
  0
LINE
  5
18B
330
1F
100
AcDbEntity
  8
0
  6
Continuous
 62
     7
100
AcDbLine
 10
244.0357561702948
 20
151.0646372176666
 30
0.0
 11
238.0357561702948
 21
151.0646372176666
 31
0.0
  0
LINE
  5
18C
330
1F
100
AcDbEntity
  8
0
  6
Continuous
 62
     7
100
AcDbLine
 10
257.5357561702948
 20
151.0646372176666
 30
0.0
 11
244.0357561702948
 21
151.0646372176666
 31
0.0
  0
LINE
  5
18D
330
1F
100
AcDbEntity
  8
0
  6
Continuous
 62
     7
100
AcDbLine
 10
244.0357561702948
 20
151.0646372176666
 30
0.0
 11
244.0357561702948
 21
160.2833962412482
 31
0.0
  0
LINE
  5
18E
330
1F
100
AcDbEntity
  8
0
  6
Continuous
 62
     7
100
AcDbLine
 10
244.0357561702948
 20
160.2833962412482
 30
0.0
 11
244.0357561702948
 21
215.5546372176667
 31
0.0
  0
LINE
  5
18F
330
1F
100
AcDbEntity
  8
0
  6
Continuous
 62
     7
100
AcDbLine
 10
150.0357561702948
 20
151.0646372176666
 30
0.0
 11
150.0357561702948
 21
160.2833962412482
 31
0.0
  0
LINE
  5
190
330
1F
100
AcDbEntity
  8
0
  6
Continuous
 62
     7
100
AcDbLine
 10
150.0357561702948
 20
160.2833962412482
 30
0.0
 11
150.0357561702948
 21
215.5546372176667
 31
0.0
  0
LINE
  5
191
330
1F
100
AcDbEntity
  8
0
  6
Continuous
 62
     7
100
AcDbLine
 10
192.5357561702948
 20
216.1720085676289
 30
0.0
 11
197.3480827037258
 21
213.3956663368033
 31
0.0
  0
LINE
  5
192
330
1F
100
AcDbEntity
  8
0
  6
Continuous
 62
     7
100
AcDbLine
 10
156.0357561702948
 20
151.0646372176666
 30
0.0
 11
150.0357561702948
 21
151.0646372176666
 31
0.0
  0
LINE
  5
193
330
1F
100
AcDbEntity
  8
0
  6
Continuous
 62
     7
100
AcDbLine
 10
257.5357561702948
 20
146.0646372176666
 30
0.0
 11
136.5357561702948
 21
146.0646372176666
 31
0.0
  0
LINE
  5
194
330
1F
100
AcDbEntity
  8
0
  6
Continuous
 62
     7
100
AcDbLine
 10
202.6607561702948
 20
216.8210470291674
 30
0.0
 11
204.2234296368638
 21
217.7225894137264
 31
0.0
  0
LINE
  5
195
330
1F
100
AcDbEntity
  8
0
  6
Continuous
 62
     7
100
AcDbLine
 10
204.8480827037258
 20
216.6398574311656
 30
0.0
 11
202.3480827037258
 21
215.1975497388579
 31
0.0
  0
LINE
  5
196
330
1F
100
AcDbEntity
  8
0
  6
Continuous
 62
     7
100
AcDbLine
 10
196.7234296368638
 20
212.3129343542426
 30
0.0
 11
191.5984296368638
 21
215.2696651234733
 31
0.0
  0
LINE
  5
197
330
1F
100
AcDbEntity
  8
0
  6
Continuous
 62
     2
100
AcDbLine
 10
238.0357561702948
 20
151.0646372176666
 30
0.0
 11
238.0357561702948
 21
230.5647372176666
 31
0.0
  0
LINE
  5
198
330
1F
100
AcDbEntity
  8
0
  6
Continuous
 62
     7
100
AcDbLine
 10
197.0357561702948
 20
210.6896372176666
 30
0.0
 11
180.7857561702948
 21
220.0646372176666
 31
0.0
  0
LINE
  5
199
330
1F
100
AcDbEntity
  8
0
  6
Continuous
 62
     7
100
AcDbLine
 10
443.4612576843438
 20
255.6320070652895
 30
0.0
 11
451.3165864551706
 21
260.1672832456994
 31
0.0
  0
LINE
  5
19A
330
1F
100
AcDbEntity
  8
0
  6
Continuous
 62
     7
100
AcDbLine
 10
444.4612576843435
 20
253.8999562577206
 30
0.0
 11
452.3165864551706
 21
258.4352324381307
 31
0.0
  0
LINE
  5
19B
330
1F
100
AcDbEntity
  8
0
  6
Continuous
 62
     2
100
AcDbLine
 10
451.3165864551706
 20
260.1672832456994
 30
0.0
 11
452.3165864551706
 21
258.4352324381307
 31
0.0
  0
LINE
  5
19C
330
1F
100
AcDbEntity
  8
0
  6
Continuous
 62
     7
100
AcDbLine
 10
455.5259941338827
 20
260.2881848253743
 30
0.0
 11
452.3165864551706
 21
258.4352324381307
 31
0.0
  0
LINE
  5
19D
330
1F
100
AcDbEntity
  8
0
  6
Continuous
 62
     7
100
AcDbLine
 10
454.5259941338827
 20
262.0202356329432
 30
0.0
 11
455.5259941338827
 21
260.2881848253743
 31
0.0
  0
LINE
  5
19E
330
1F
100
AcDbEntity
  8
0
  6
Continuous
 62
     7
100
AcDbLine
 10
454.5259941338827
 20
262.0202356329432
 30
0.0
 11
451.3165864551706
 21
260.1672832456994
 31
0.0
  0
LINE
  5
19F
330
1F
100
AcDbEntity
  8
0
  6
Continuous
 62
     7
100
AcDbLine
 10
443.1680325049272
 20
255.4627134290201
 30
0.0
 11
443.4612576843438
 21
255.6320070652895
 31
0.0
  0
LINE
  5
1A0
330
1F
100
AcDbEntity
  8
0
  6
Continuous
 62
     7
100
AcDbLine
 10
443.1680325049272
 20
255.4627134290201
 30
0.0
 11
443.7680461771922
 21
254.423459263421
 31
0.0
  0
LINE
  5
1A1
330
1F
100
AcDbEntity
  8
0
  6
Continuous
 62
     7
100
AcDbLine
 10
443.7680461771922
 20
254.423459263421
 30
0.0
 11
444.1680325049269
 21
253.7306626214513
 31
0.0
  0
LINE
  5
1A2
330
1F
100
AcDbEntity
  8
0
  6
Continuous
 62
     2
100
AcDbLine
 10
444.4612576843435
 20
253.8999562577206
 30
0.0
 11
443.4612576843438
 21
255.6320070652895
 31
0.0
  0
LINE
  5
1A3
330
1F
100
AcDbEntity
  8
0
  6
Continuous
 62
     7
100
AcDbLine
 10
444.1680325049269
 20
253.7306626214513
 30
0.0
 11
444.4612576843435
 21
253.8999562577206
 31
0.0
  0
LINE
  5
1A4
330
1F
100
AcDbEntity
  8
0
  6
Continuous
 62
     7
100
AcDbLine
 10
443.6680325049272
 20
252.8646372176667
 30
0.0
 11
443.6680325049272
 21
240.8646372176667
 31
0.0
  0
LINE
  5
1A5
330
1F
100
AcDbEntity
  8
0
  6
Continuous
 62
     7
100
AcDbLine
 10
443.6680325049272
 20
240.8646372176667
 30
0.0
 11
436.6680325049272
 21
240.8646372176667
 31
0.0
  0
LINE
  5
1A6
330
1F
100
AcDbEntity
  8
0
  6
Continuous
 62
     7
100
AcDbLine
 10
443.6680325049272
 20
252.8646372176667
 30
0.0
 11
441.6680325049272
 21
252.8646372176667
 31
0.0
  0
LINE
  5
1A7
330
1F
100
AcDbEntity
  8
0
  6
Continuous
 62
     7
100
AcDbLine
 10
441.6680325049272
 20
252.8646372176667
 30
0.0
 11
436.6680325049272
 21
252.8646372176667
 31
0.0
  0
LINE
  5
1A8
330
1F
100
AcDbEntity
  8
0
  6
Continuous
 62
     7
100
AcDbLine
 10
390.1680325049272
 20
252.8646372176667
 30
0.0
 11
436.6680325049272
 21
252.8646372176667
 31
0.0
  0
LINE
  5
1A9
330
1F
100
AcDbEntity
  8
0
  6
Continuous
 62
     7
100
AcDbLine
 10
403.068032504927
 20
236.341472009242
 30
0.0
 11
403.068032504927
 21
240.9646372176667
 31
0.0
  0
LINE
  5
1AA
330
1F
100
AcDbEntity
  8
0
  6
Continuous
 62
     7
100
AcDbLine
 10
398.6680325049268
 20
243.3646372176667
 30
0.0
 11
400.6680325049272
 21
243.3646372176667
 31
0.0
  0
LINE
  5
1AB
330
1F
100
AcDbEntity
  8
0
  6
Continuous
 62
     7
100
AcDbLine
 10
396.2960738301626
 20
243.1042376275333
 30
0.0
 11
398.6680325049268
 21
243.3646372176667
 31
0.0
  0
LINE
  5
1AC
330
1F
100
AcDbEntity
  8
0
  6
Continuous
 62
     2
100
AcDbLine
 10
436.6680325049272
 20
252.8646372176667
 30
0.0
 11
436.6680325049272
 21
240.8646372176667
 31
0.0
  0
LINE
  5
1AD
330
1F
100
AcDbEntity
  8
0
  6
Continuous
 62
     7
100
AcDbLine
 10
435.704308245593
 20
240.8646372176667
 30
0.0
 11
436.6680325049272
 21
240.8646372176667
 31
0.0
  0
LINE
  5
1AE
330
1F
100
AcDbEntity
  8
0
  6
Continuous
 62
     7
100
AcDbLine
 10
336.9570861971815
 20
232.0646372176667
 30
0.0
 11
339.1680325049272
 21
232.0646372176667
 31
0.0
  0
LINE
  5
1AF
330
1F
100
AcDbEntity
  8
0
  6
Continuous
 62
     7
100
AcDbLine
 10
394.0698227576776
 20
243.3269452053261
 30
0.0
 11
388.8894647071273
 21
245.0744836077942
 31
0.0
  0
LINE
  5
1B0
330
1F
100
AcDbEntity
  8
0
  6
Continuous
 62
     7
100
AcDbLine
 10
426.9885405806158
 20
236.0646372176668
 30
0.0
 11
434.954308245593
 21
240.6636753233434
 31
0.0
  0
LINE
  5
1B1
330
1F
100
AcDbEntity
  8
0
  6
Continuous
 62
     7
100
AcDbLine
 10
401.4180325049269
 20
221.3014974968523
 30
0.0
 11
426.9885405806158
 21
236.0646372176668
 31
0.0
  0
LINE
  5
1B2
330
1F
100
AcDbEntity
  8
0
  6
Continuous
 62
     2
100
AcDbLine
 10
362.6680325049272
 20
151.0646372176668
 30
0.0
 11
362.6680325049272
 21
230.5646372176668
 31
0.0
  0
LINE
  5
1B3
330
1F
100
AcDbEntity
  8
0
  6
Continuous
 62
     7
100
AcDbLine
 10
362.4180325049272
 20
230.5647372176668
 30
0.0
 11
362.6680325049272
 21
230.5646372176668
 31
0.0
  0
LINE
  5
1B4
330
1F
100
AcDbEntity
  8
0
  6
Continuous
 62
     7
100
AcDbLine
 10
356.6680325049272
 20
215.5646372176668
 30
0.0
 11
356.6680325049272
 21
230.3146372176668
 31
0.0
  0
LINE
  5
1B5
330
1F
100
AcDbEntity
  8
0
  6
Continuous
 62
     7
100
AcDbLine
 10
356.6680325049272
 20
211.3146372176668
 30
0.0
 11
354.6680325049271
 21
211.3146372176668
 31
0.0
  0
LINE
  5
1B6
330
1F
100
AcDbEntity
  8
0
  6
Continuous
 62
     7
100
AcDbLine
 10
350.1180325049272
 20
230.3146372176668
 30
0.0
 11
356.6680325049272
 21
230.3146372176668
 31
0.0
  0
LINE
  5
1B7
330
1F
100
AcDbEntity
  8
0
  6
Continuous
 62
     7
100
AcDbLine
 10
356.6680325049272
 20
215.5646372176668
 30
0.0
 11
350.1180325049272
 21
215.5646372176668
 31
0.0
  0
LINE
  5
1B8
330
1F
100
AcDbEntity
  8
0
  6
Continuous
 62
     7
100
AcDbLine
 10
356.6680325049272
 20
230.5647372176668
 30
0.0
 11
362.4180325049272
 21
230.5647372176668
 31
0.0
  0
LINE
  5
1B9
330
1F
100
AcDbEntity
  8
0
  6
Continuous
 62
     7
100
AcDbLine
 10
350.1180325049272
 20
215.5646372176668
 30
0.0
 11
350.1180325049272
 21
230.3146372176668
 31
0.0
  0
LINE
  5
1BA
330
1F
100
AcDbEntity
  8
0
  6
Continuous
 62
     7
100
AcDbLine
 10
348.1180325049272
 20
240.8146372176668
 30
0.0
 11
340.1680325049272
 21
240.8146372176668
 31
0.0
  0
LINE
  5
1BB
330
1F
100
AcDbEntity
  8
0
  6
Continuous
 62
     7
100
AcDbLine
 10
340.6680325049271
 20
251.0646372176667
 30
0.0
 11
331.8660515409902
 21
251.0646372176668
 31
0.0
  0
LINE
  5
1BC
330
1F
100
AcDbEntity
  8
0
  6
Continuous
 62
     7
100
AcDbLine
 10
415.6680325049272
 20
151.0646372176668
 30
0.0
 11
415.6680325049272
 21
160.2833962412483
 31
0.0
  0
LINE
  5
1BD
330
1F
100
AcDbEntity
  8
0
  6
Continuous
 62
     7
100
AcDbLine
 10
356.6680325049272
 20
146.0646372176668
 30
0.0
 11
358.6680325049272
 21
146.0646372176668
 31
0.0
  0
LINE
  5
1BE
330
1F
100
AcDbEntity
  8
0
  6
Continuous
 62
     7
100
AcDbLine
 10
438.6680325049272
 20
146.0646372176668
 30
0.0
 11
440.6680325049272
 21
146.0646372176668
 31
0.0
  0
LINE
  5
1BF
330
1F
100
AcDbEntity
  8
0
  6
Continuous
 62
     7
100
AcDbLine
 10
438.6680325049272
 20
146.0646372176668
 30
0.0
 11
358.6680325049272
 21
146.0646372176668
 31
0.0
  0
LINE
  5
1C0
330
1F
100
AcDbEntity
  8
0
  6
Continuous
 62
     7
100
AcDbLine
 10
356.6680325049272
 20
146.0646372176668
 30
0.0
 11
356.6680325049272
 21
151.0646372176668
 31
0.0
  0
LINE
  5
1C1
330
1F
100
AcDbEntity
  8
0
  6
Continuous
 62
     7
100
AcDbLine
 10
356.6680325049272
 20
151.0646372176668
 30
0.0
 11
356.6680325049272
 21
211.3146372176668
 31
0.0
  0
LINE
  5
1C2
330
1F
100
AcDbEntity
  8
0
  6
Continuous
 62
     2
100
AcDbLine
 10
358.6680325049272
 20
146.0646372176668
 30
0.0
 11
358.6680325049272
 21
151.0646372176668
 31
0.0
  0
LINE
  5
1C3
330
1F
100
AcDbEntity
  8
0
  6
Continuous
 62
     7
100
AcDbLine
 10
438.6680325049272
 20
151.0646372176668
 30
0.0
 11
434.6680325049272
 21
151.0646372176668
 31
0.0
  0
LINE
  5
1C4
330
1F
100
AcDbEntity
  8
0
  6
Continuous
 62
     7
100
AcDbLine
 10
440.6680325049272
 20
151.0646372176668
 30
0.0
 11
438.6680325049272
 21
151.0646372176668
 31
0.0
  0
LINE
  5
1C5
330
1F
100
AcDbEntity
  8
0
  6
Continuous
 62
     7
100
AcDbLine
 10
434.6680325049272
 20
151.0646372176668
 30
0.0
 11
415.6680325049272
 21
151.0646372176668
 31
0.0
  0
LINE
  5
1C6
330
1F
100
AcDbEntity
  8
0
  6
Continuous
 62
     2
100
AcDbLine
 10
438.6680325049272
 20
151.0646372176668
 30
0.0
 11
438.6680325049272
 21
146.0646372176668
 31
0.0
  0
LINE
  5
1C7
330
1F
100
AcDbEntity
  8
0
  6
Continuous
 62
     7
100
AcDbLine
 10
440.6680325049272
 20
146.0646372176668
 30
0.0
 11
440.6680325049272
 21
151.0646372176668
 31
0.0
  0
LINE
  5
1C8
330
1F
100
AcDbEntity
  8
0
  6
Continuous
 62
     7
100
AcDbLine
 10
362.6680325049272
 20
151.0646372176668
 30
0.0
 11
358.6680325049272
 21
151.0646372176668
 31
0.0
  0
LINE
  5
1C9
330
1F
100
AcDbEntity
  8
0
  6
Continuous
 62
     7
100
AcDbLine
 10
381.6680325049272
 20
160.2833962412483
 30
0.0
 11
381.6680325049272
 21
151.0646372176668
 31
0.0
  0
LINE
  5
1CA
330
1F
100
AcDbEntity
  8
0
  6
Continuous
 62
     7
100
AcDbLine
 10
358.6680325049272
 20
151.0646372176668
 30
0.0
 11
356.6680325049272
 21
151.0646372176668
 31
0.0
  0
LINE
  5
1CB
330
1F
100
AcDbEntity
  8
0
  6
Continuous
 62
     7
100
AcDbLine
 10
381.6680325049272
 20
151.0646372176668
 30
0.0
 11
362.6680325049272
 21
151.0646372176668
 31
0.0
  0
LINE
  5
1CC
330
1F
100
AcDbEntity
  8
0
  6
Continuous
 62
     7
100
AcDbLine
 10
354.6680325049271
 20
209.3146372176668
 30
0.0
 11
340.1680325049271
 21
209.3146372176668
 31
0.0
  0
LINE
  5
1CD
330
1F
100
AcDbEntity
  8
0
  6
Continuous
 62
     7
100
AcDbLine
 10
354.6680325049271
 20
211.3146372176668
 30
0.0
 11
354.6680325049271
 21
209.3146372176668
 31
0.0
  0
LINE
  5
1CE
330
1F
100
AcDbEntity
  8
0
  6
Continuous
 62
     7
100
AcDbLine
 10
346.6680325049271
 20
333.8297270878104
 30
0.0
 11
342.1135767025654
 21
333.8297270878104
 31
0.0
  0
LINE
  5
1CF
330
1F
100
AcDbEntity
  8
0
  6
Continuous
 62
     7
100
AcDbLine
 10
346.6680325049271
 20
325.0297270878103
 30
0.0
 11
346.6680325049271
 21
333.8297270878104
 31
0.0
  0
LINE
  5
1D0
330
1F
100
AcDbEntity
  8
0
  6
Continuous
 62
     7
100
AcDbLine
 10
346.6680325049271
 20
247.7995473475231
 30
0.0
 11
346.6680325049271
 21
256.5995473475232
 31
0.0
  0
LINE
  5
1D1
330
1F
100
AcDbEntity
  8
0
  6
Continuous
 62
     7
100
AcDbLine
 10
346.6680325049271
 20
247.7995473475231
 30
0.0
 11
343.1680325049271
 21
247.7995473475232
 31
0.0
  0
LINE
  5
1D2
330
1F
100
AcDbEntity
  8
0
  6
Continuous
 62
     7
100
AcDbLine
 10
348.2029154139913
 20
240.3690019450809
 30
0.0
 11
348.4912835400678
 21
240.3374204989538
 31
0.0
  0
LINE
  5
1D3
330
1F
100
AcDbEntity
  8
0
  6
Continuous
 62
     7
100
AcDbLine
 10
348.4912835400678
 20
240.3374204989538
 30
0.0
 11
348.3882060117687
 21
239.3962263067489
 31
0.0
  0
LINE
  5
1D4
330
1F
100
AcDbEntity
  8
0
  6
Continuous
 62
     7
100
AcDbLine
 10
350.1180325049272
 20
230.3146372176668
 30
0.0
 11
348.1180325049272
 21
240.8146372176668
 31
0.0
  0
LINE
  5
1D5
330
1F
100
AcDbEntity
  8
0
  6
Continuous
 62
     7
100
AcDbLine
 10
343.1680325049271
 20
240.8146372176668
 30
0.0
 11
343.1680325049271
 21
247.7995473475232
 31
0.0
  0
LINE
  5
1D6
330
1F
100
AcDbEntity
  8
0
  6
Continuous
 62
     7
100
AcDbLine
 10
343.1680325049271
 20
247.7995473475232
 30
0.0
 11
340.6680325049271
 21
247.7995473475231
 31
0.0
  0
LINE
  5
1D7
330
1F
100
AcDbEntity
  8
0
  6
Continuous
 62
     2
100
AcDbLine
 10
346.6680325049271
 20
256.5995473475232
 30
0.0
 11
340.6680325049271
 21
256.5995473475232
 31
0.0
  0
LINE
  5
1D8
330
1F
100
AcDbEntity
  8
0
  6
Continuous
 62
     2
100
AcDbLine
 10
340.6680325049271
 20
325.0297270878103
 30
0.0
 11
346.6680325049271
 21
325.0297270878103
 31
0.0
  0
LINE
  5
1D9
330
1F
100
AcDbEntity
  8
0
  6
Continuous
 62
     7
100
AcDbLine
 10
340.6680325049271
 20
330.5646372176668
 30
0.0
 11
339.0603373503404
 21
330.5646372176668
 31
0.0
  0
LINE
  5
1DA
330
1F
100
AcDbEntity
  8
0
  6
Continuous
 62
     7
100
AcDbLine
 10
340.6680325049271
 20
247.7995473475231
 30
0.0
 11
340.6680325049271
 21
251.0646372176667
 31
0.0
  0
LINE
  5
1DB
330
1F
100
AcDbEntity
  8
0
  6
Continuous
 62
     7
100
AcDbLine
 10
340.6680325049271
 20
256.5646372176667
 30
0.0
 11
340.6680325049271
 21
256.5995473475232
 31
0.0
  0
LINE
  5
1DC
330
1F
100
AcDbEntity
  8
0
  6
Continuous
 62
     7
100
AcDbLine
 10
340.6680325049271
 20
251.0646372176667
 30
0.0
 11
340.6680325049271
 21
256.5646372176667
 31
0.0
  0
LINE
  5
1DD
330
1F
100
AcDbEntity
  8
0
  6
Continuous
 62
     7
100
AcDbLine
 10
340.6680325049271
 20
330.5646372176668
 30
0.0
 11
340.6680325049271
 21
333.8297270878104
 31
0.0
  0
LINE
  5
1DE
330
1F
100
AcDbEntity
  8
0
  6
Continuous
 62
     7
100
AcDbLine
 10
340.6680325049271
 20
325.0297270878103
 30
0.0
 11
340.6680325049271
 21
325.0646372176668
 31
0.0
  0
LINE
  5
1DF
330
1F
100
AcDbEntity
  8
0
  6
Continuous
 62
     7
100
AcDbLine
 10
340.6680325049271
 20
325.0646372176668
 30
0.0
 11
340.6680325049271
 21
330.5646372176668
 31
0.0
  0
LINE
  5
1E0
330
1F
100
AcDbEntity
  8
0
  6
Continuous
 62
     7
100
AcDbLine
 10
342.1135767025654
 20
333.8297270878104
 30
0.0
 11
340.6680325049271
 21
333.8297270878104
 31
0.0
  0
LINE
  5
1E1
330
1F
100
AcDbEntity
  8
0
  6
Continuous
 62
     7
100
AcDbLine
 10
340.6680325049271
 20
325.0297270878103
 30
0.0
 11
340.6680325049271
 21
295.3146372176668
 31
0.0
  0
LINE
  5
1E2
330
1F
100
AcDbEntity
  8
0
  6
Continuous
 62
     7
100
AcDbLine
 10
340.6680325049271
 20
256.5995473475232
 30
0.0
 11
340.6680325049271
 21
286.3146372176667
 31
0.0
  0
LINE
  5
1E3
330
1F
100
AcDbEntity
  8
0
  6
Continuous
 62
     7
100
AcDbLine
 10
339.2680325049272
 20
288.8171387821229
 30
0.0
 11
339.2680325049272
 21
292.8121356532106
 31
0.0
  0
LINE
  5
1E4
330
1F
100
AcDbEntity
  8
0
  6
Continuous
 62
     7
100
AcDbLine
 10
341.8958287279215
 20
335.0646372176668
 30
0.0
 11
340.2661087162805
 21
335.0646372176668
 31
0.0
  0
LINE
  5
1E5
330
1F
100
AcDbEntity
  8
0
  6
Continuous
 62
     7
100
AcDbLine
 10
339.1680325049272
 20
210.3146372176668
 30
0.0
 11
339.1680325049271
 21
239.8146372176668
 31
0.0
  0
LINE
  5
1E6
330
1F
100
AcDbEntity
  8
0
  6
Continuous
 62
     7
100
AcDbLine
 10
342.1135767025654
 20
333.8297270878104
 30
0.0
 11
341.8958287279215
 21
335.0646372176668
 31
0.0
  0
LINE
  5
1E7
330
1F
100
AcDbEntity
  8
0
  6
Continuous
 62
     7
100
AcDbLine
 10
340.2661087162805
 20
335.0646372176668
 30
0.0
 11
339.0603373503404
 21
330.5646372176668
 31
0.0
  0
LINE
  5
1E8
330
1F
100
AcDbEntity
  8
0
  6
Continuous
 62
     7
100
AcDbLine
 10
346.6680325049271
 20
325.0297270878103
 30
0.0
 11
346.6680325049271
 21
256.5995473475232
 31
0.0
  0
LINE
  5
1E9
330
1F
100
AcDbEntity
  8
0
  6
Continuous
 62
     7
100
AcDbLine
 10
328.1680325049271
 20
325.0646372176668
 30
0.0
 11
328.1680325049271
 21
327.5646372176668
 31
0.0
  0
LINE
  5
1EA
330
1F
100
AcDbEntity
  8
0
  6
Continuous
 62
     2
100
AcDbLine
 10
331.1680325049271
 20
325.0646372176668
 30
0.0
 11
331.1680325049271
 21
330.5646372176668
 31
0.0
  0
LINE
  5
1EB
330
1F
100
AcDbEntity
  8
0
  6
Continuous
 62
     2
100
AcDbLine
 10
331.1680325049271
 20
256.5646372176667
 30
0.0
 11
331.1680325049271
 21
325.0646372176668
 31
0.0
  0
LINE
  5
1EC
330
1F
100
AcDbEntity
  8
0
  6
Continuous
 62
     7
100
AcDbLine
 10
327.6680325049271
 20
260.0362811043658
 30
0.0
 11
327.6680325049271
 21
259.9924262866061
 31
0.0
  0
LINE
  5
1ED
330
1F
100
AcDbEntity
  8
0
  6
Continuous
 62
     2
100
AcDbLine
 10
328.1680325049271
 20
256.5646372176667
 30
0.0
 11
331.1680325049271
 21
256.5646372176667
 31
0.0
  0
LINE
  5
1EE
330
1F
100
AcDbEntity
  8
0
  6
Continuous
 62
     7
100
AcDbLine
 10
328.1680325049271
 20
254.0646372176667
 30
0.0
 11
328.1680325049271
 21
256.5646372176667
 31
0.0
  0
LINE
  5
1EF
330
1F
100
AcDbEntity
  8
0
  6
Continuous
 62
     2
100
AcDbLine
 10
331.1680325049271
 20
251.0646372176667
 30
0.0
 11
331.1680325049271
 21
256.5646372176667
 31
0.0
  0
LINE
  5
1F0
330
1F
100
AcDbEntity
  8
0
  6
Continuous
 62
     7
100
AcDbLine
 10
331.8660515409902
 20
251.0646372176668
 30
0.0
 11
331.1680325049271
 21
251.0646372176667
 31
0.0
  0
LINE
  5
1F1
330
1F
100
AcDbEntity
  8
0
  6
Continuous
 62
     7
100
AcDbLine
 10
328.1680325049271
 20
265.1273899484454
 30
0.0
 11
328.1680325049271
 21
264.838231624767
 31
0.0
  0
LINE
  5
1F2
330
1F
100
AcDbEntity
  8
0
  6
Continuous
 62
     7
100
AcDbLine
 10
328.1680325049271
 20
264.838231624767
 30
0.0
 11
328.1680325049271
 21
260.0362811043658
 31
0.0
  0
LINE
  5
1F3
330
1F
100
AcDbEntity
  8
0
  6
Continuous
 62
     2
100
AcDbLine
 10
328.1680325049271
 20
260.0362811043658
 30
0.0
 11
327.6680325049271
 21
260.0362811043658
 31
0.0
  0
LINE
  5
1F4
330
1F
100
AcDbEntity
  8
0
  6
Continuous
 62
     7
100
AcDbLine
 10
327.6680325049271
 20
269.9293404466615
 30
0.0
 11
327.6680325049271
 21
265.1273899484454
 31
0.0
  0
LINE
  5
1F5
330
1F
100
AcDbEntity
  8
0
  6
Continuous
 62
     7
100
AcDbLine
 10
327.6680325049271
 20
264.838231624767
 30
0.0
 11
327.6680325049271
 21
265.1273899484454
 31
0.0
  0
LINE
  5
1F6
330
1F
100
AcDbEntity
  8
0
  6
Continuous
 62
     7
100
AcDbLine
 10
327.6680325049271
 20
260.0362811043658
 30
0.0
 11
327.6680325049271
 21
264.838231624767
 31
0.0
  0
LINE
  5
1F7
330
1F
100
AcDbEntity
  8
0
  6
Continuous
 62
     7
100
AcDbLine
 10
336.9570861971815
 20
232.0646372176667
 30
0.0
 11
331.8660515409902
 21
251.0646372176668
 31
0.0
  0
LINE
  5
1F8
330
1F
100
AcDbEntity
  8
0
  6
Continuous
 62
     2
100
AcDbLine
 10
434.6680325049272
 20
151.0646372176668
 30
0.0
 11
434.6680325049272
 21
230.5646372176668
 31
0.0
  0
LINE
  5
1F9
330
1F
100
AcDbEntity
  8
0
  6
Continuous
 62
     7
100
AcDbLine
 10
440.6680325049272
 20
151.0646372176668
 30
0.0
 11
440.6680325049272
 21
230.5647372176668
 31
0.0
  0
LINE
  5
1FA
330
1F
100
AcDbEntity
  8
0
  6
Continuous
 62
     7
100
AcDbLine
 10
440.6680325049272
 20
230.5647372176668
 30
0.0
 11
440.9180325049272
 21
230.5647372176668
 31
0.0
  0
LINE
  5
1FB
330
1F
100
AcDbEntity
  8
0
  6
Continuous
 62
     7
100
AcDbLine
 10
440.9180325049272
 20
236.0646372176668
 30
0.0
 11
434.9180325049272
 21
236.0646372176668
 31
0.0
  0
LINE
  5
1FC
330
1F
100
AcDbEntity
  8
0
  6
Continuous
 62
     7
100
AcDbLine
 10
440.9180325049272
 20
236.0646372176668
 30
0.0
 11
440.9180325049272
 21
230.5647372176668
 31
0.0
  0
LINE
  5
1FD
330
1F
100
AcDbEntity
  8
0
  6
Continuous
 62
     7
100
AcDbLine
 10
356.6680325049272
 20
230.3146372176668
 30
0.0
 11
356.6680325049272
 21
230.5647372176668
 31
0.0
  0
LINE
  5
1FE
330
1F
100
AcDbEntity
  8
0
  6
Continuous
 62
     7
100
AcDbLine
 10
434.9180325049272
 20
230.5647372176668
 30
0.0
 11
440.6680325049272
 21
230.5647372176668
 31
0.0
  0
LINE
  5
1FF
330
1F
100
AcDbEntity
  8
0
  6
Continuous
 62
     7
100
AcDbLine
 10
434.9180325049272
 20
236.0646372176668
 30
0.0
 11
426.9885405806158
 21
236.0646372176668
 31
0.0
  0
LINE
  5
200
330
1F
100
AcDbEntity
  8
0
  6
Continuous
 62
     7
100
AcDbLine
 10
434.6680325049272
 20
230.5646372176668
 30
0.0
 11
434.9180325049272
 21
230.5647372176668
 31
0.0
  0
LINE
  5
201
330
1F
100
AcDbEntity
  8
0
  6
Continuous
 62
     2
100
AcDbLine
 10
434.9180325049272
 20
236.0646372176668
 30
0.0
 11
434.9180325049272
 21
230.5647372176668
 31
0.0
  0
LINE
  5
202
330
1F
100
AcDbEntity
  8
0
  6
Continuous
 62
     7
100
AcDbLine
 10
356.4180325049272
 20
230.5647372176668
 30
0.0
 11
356.6680325049272
 21
230.5647372176668
 31
0.0
  0
LINE
  5
203
330
1F
100
AcDbEntity
  8
0
  6
Continuous
 62
     7
100
AcDbLine
 10
356.4180325049272
 20
236.0646372176668
 30
0.0
 11
356.4180325049272
 21
230.5647372176668
 31
0.0
  0
LINE
  5
204
330
1F
100
AcDbEntity
  8
0
  6
Continuous
 62
     2
100
AcDbLine
 10
362.4180325049272
 20
236.0646372176668
 30
0.0
 11
362.4180325049272
 21
230.5647372176668
 31
0.0
  0
LINE
  5
205
330
1F
100
AcDbEntity
  8
0
  6
Continuous
 62
     7
100
AcDbLine
 10
362.4180325049272
 20
236.0646372176668
 30
0.0
 11
356.4180325049272
 21
236.0646372176668
 31
0.0
  0
LINE
  5
206
330
1F
100
AcDbEntity
  8
0
  6
Continuous
 62
     7
100
AcDbLine
 10
403.0520128945641
 20
236.0646372176668
 30
0.0
 11
362.4180325049272
 21
236.0646372176668
 31
0.0
  0
LINE
  5
207
330
1F
100
AcDbEntity
  8
0
  6
Continuous
 62
     7
100
AcDbLine
 10
401.8680325049272
 20
234.2630110401594
 30
0.0
 11
395.9180325049272
 21
230.8277769384812
 31
0.0
  0
LINE
  5
208
330
1F
100
AcDbEntity
  8
0
  6
Continuous
 62
     7
100
AcDbLine
 10
356.6680325049272
 20
211.3146372176668
 30
0.0
 11
356.6680325049272
 21
215.5646372176668
 31
0.0
  0
LINE
  5
209
330
1F
100
AcDbEntity
  8
0
  6
Continuous
 62
     2
100
AcDbLine
 10
340.6680325049271
 20
325.0646372176668
 30
0.0
 11
331.1680325049271
 21
325.0646372176668
 31
0.0
  0
LINE
  5
20A
330
1F
100
AcDbEntity
  8
0
  6
Continuous
 62
     2
100
AcDbLine
 10
328.1680325049271
 20
325.0646372176668
 30
0.0
 11
331.1680325049271
 21
325.0646372176668
 31
0.0
  0
LINE
  5
20B
330
1F
100
AcDbEntity
  8
0
  6
Continuous
 62
     7
100
AcDbLine
 10
327.6680325049271
 20
259.9924262866061
 30
0.0
 11
328.1680325049271
 21
259.9924262866061
 31
0.0
  0
LINE
  5
20C
330
1F
100
AcDbEntity
  8
0
  6
Continuous
 62
     7
100
AcDbLine
 10
328.1680325049271
 20
260.0362811043658
 30
0.0
 11
328.1680325049271
 21
259.9924262866061
 31
0.0
  0
LINE
  5
20D
330
1F
100
AcDbEntity
  8
0
  6
Continuous
 62
     7
100
AcDbLine
 10
328.1680325049271
 20
259.9924262866061
 30
0.0
 11
328.1680325049271
 21
256.5646372176667
 31
0.0
  0
LINE
  5
20E
330
1F
100
AcDbEntity
  8
0
  6
Continuous
 62
     7
100
AcDbLine
 10
336.6680325049271
 20
295.3146372176668
 30
0.0
 11
340.6680325049271
 21
295.3146372176668
 31
0.0
  0
LINE
  5
20F
330
1F
100
AcDbEntity
  8
0
  6
Continuous
 62
     7
100
AcDbLine
 10
340.6680325049271
 20
286.3146372176667
 30
0.0
 11
336.6680325049271
 21
286.3146372176667
 31
0.0
  0
LINE
  5
210
330
1F
100
AcDbEntity
  8
0
  6
Continuous
 62
     7
100
AcDbLine
 10
327.6680325049271
 20
269.9731952718873
 30
0.0
 11
327.6680325049271
 21
269.9293404466615
 31
0.0
  0
LINE
  5
211
330
1F
100
AcDbEntity
  8
0
  6
Continuous
 62
     7
100
AcDbLine
 10
328.1680325049271
 20
269.9731952718873
 30
0.0
 11
328.1680325049271
 21
269.9293404688663
 31
0.0
  0
LINE
  5
212
330
1F
100
AcDbEntity
  8
0
  6
Continuous
 62
     7
100
AcDbLine
 10
327.6680325049271
 20
269.9731952718873
 30
0.0
 11
328.1680325049271
 21
269.9731952718873
 31
0.0
  0
LINE
  5
213
330
1F
100
AcDbEntity
  8
0
  6
Continuous
 62
     7
100
AcDbLine
 10
328.1680325049271
 20
269.9293404688663
 30
0.0
 11
328.1680325049271
 21
265.1273899484454
 31
0.0
  0
LINE
  5
214
330
1F
100
AcDbEntity
  8
0
  6
Continuous
 62
     2
100
AcDbLine
 10
328.1680325049271
 20
269.9293404688663
 30
0.0
 11
327.6680325049271
 21
269.9293404466615
 31
0.0
  0
LINE
  5
215
330
1F
100
AcDbEntity
  8
0
  6
Continuous
 62
     2
100
AcDbLine
 10
328.1680325049271
 20
265.1273899484454
 30
0.0
 11
327.6680325049271
 21
265.1273899484454
 31
0.0
  0
LINE
  5
216
330
1F
100
AcDbEntity
  8
0
  6
Continuous
 62
     2
100
AcDbLine
 10
328.1680325049271
 20
264.838231624767
 30
0.0
 11
327.6680325049271
 21
264.838231624767
 31
0.0
  0
LINE
  5
217
330
1F
100
AcDbEntity
  8
0
  6
Continuous
 62
     2
100
AcDbLine
 10
340.6680325049271
 20
256.5646372176667
 30
0.0
 11
331.1680325049271
 21
256.5646372176667
 31
0.0
  0
LINE
  5
218
330
1F
100
AcDbEntity
  8
0
  6
Continuous
 62
     7
100
AcDbLine
 10
328.1680325049271
 20
325.0646372176668
 30
0.0
 11
328.1680325049271
 21
269.9731952718873
 31
0.0
  0
LINE
  5
219
330
1F
100
AcDbEntity
  8
0
  6
Continuous
 62
     7
100
AcDbLine
 10
339.0603373503404
 20
330.5646372176668
 30
0.0
 11
331.1680325049271
 21
330.5646372176668
 31
0.0
  0
LINE
  5
21A
330
1F
100
AcDbEntity
  8
1
  6
DOT_CENTER
 62
     2
100
AcDbLine
 10
425.6820325049272
 20
185.3046372176668
 30
0.0
 11
371.6540325049272
 21
185.3046372176668
 31
0.0
  0
LINE
  5
21B
330
1F
100
AcDbEntity
  8
1
  6
DOT_CENTER
 62
     2
100
AcDbLine
 10
398.6680325049272
 20
212.3186372176668
 30
0.0
 11
398.6680325049272
 21
158.2906372176667
 31
0.0
  0
LINE
  5
21C
330
1F
100
AcDbEntity
  8
1
  6
DOT_CENTER
 62
     2
100
AcDbLine
 10
405.6180325049272
 20
226.0646372176668
 30
0.0
 11
391.7180325049271
 21
226.0646372176668
 31
0.0
  0
LINE
  5
21D
330
1F
100
AcDbEntity
  8
1
  6
DOT_CENTER
 62
     2
100
AcDbLine
 10
398.6680325049272
 20
233.0146372176668
 30
0.0
 11
398.6680325049272
 21
219.1146372176668
 31
0.0
  0
LINE
  5
21E
330
1F
100
AcDbEntity
  8
1
  6
DOT_CENTER
 62
     2
100
AcDbLine
 10
254.0357561708835
 20
226.0646372176666
 30
0.0
 11
243.0357561702947
 21
226.0646372176666
 31
0.0
  0
LINE
  5
21F
330
1F
100
AcDbEntity
  8
1
  6
DOT_CENTER
 62
     2
100
AcDbLine
 10
140.0357561702948
 20
226.0646372176666
 30
0.0
 11
151.0357561702948
 21
226.0646372176666
 31
0.0
  0
LINE
  5
220
330
1F
100
AcDbEntity
  8
1
  6
Continuous
 62
     2
100
AcDbLine
 10
259.5511398957531
 20
205.0446372176668
 30
0.0
 11
259.557314377077
 21
205.0446372176668
 31
0.0
  0
LINE
  5
221
330
1F
100
AcDbEntity
  8
1
  6
Continuous
 62
     2
100
AcDbLine
 10
259.5511398957531
 20
165.5646372176668
 30
0.0
 11
259.557314377077
 21
165.5646372176668
 31
0.0
  0
LINE
  5
222
330
1F
100
AcDbEntity
  8
1
  6
DOT_CENTER
 62
     2
100
AcDbLine
 10
141.0357561702948
 20
154.0646372176666
 30
0.0
 11
141.0357561702948
 21
143.0646372176666
 31
0.0
  0
LINE
  5
223
330
1F
100
AcDbEntity
  8
1
  6
DOT_CENTER
 62
     2
100
AcDbLine
 10
253.0357561702948
 20
154.0646372176666
 30
0.0
 11
253.0357561702948
 21
143.0646372176666
 31
0.0
  0
LINE
  5
224
330
1F
100
AcDbEntity
  8
1
  6
DOT_CENTER
 62
     2
100
AcDbLine
 10
365.1680325049272
 20
154.0646372176666
 30
0.0
 11
365.1680325049272
 21
143.0646372176666
 31
0.0
  0
LINE
  5
225
330
1F
100
AcDbEntity
  8
1
  6
DOT_CENTER
 62
     2
100
AcDbLine
 10
432.1680325049272
 20
154.0646372176666
 30
0.0
 11
432.1680325049272
 21
143.0646372176666
 31
0.0
  0
ARC
  5
226
330
1F
100
AcDbEntity
  8
0
  6
Continuous
 62
     7
100
AcDbCircle
 10
199.5357561702948
 20
225.8326663975026
 30
0.0
 40
0.625
100
AcDbArc
 50
0.0
 51
144.0904238229651
  0
ARC
  5
227
330
1F
100
AcDbEntity
  8
0
  6
Continuous
 62
     7
100
AcDbCircle
 10
194.5357561702948
 20
225.8326663975026
 30
0.0
 40
0.6250000000000008
100
AcDbArc
 50
35.9095761770364
 51
180.0
  0
ARC
  5
228
330
1F
100
AcDbEntity
  8
0
  6
Continuous
 62
     7
100
AcDbCircle
 10
202.0357561702948
 20
224.390358705195
 30
0.0
 40
0.6249999999999261
100
AcDbArc
 50
60.01836063114624
 51
180.0
  0
ARC
  5
229
330
1F
100
AcDbEntity
  8
0
  6
Continuous
 62
     7
100
AcDbCircle
 10
191.9107561702948
 20
224.3182433205796
 30
0.0
 40
0.625
100
AcDbArc
 50
0.0
 51
180.0
  0
ARC
  5
22A
330
1F
100
AcDbEntity
  8
0
  6
Continuous
 62
     7
100
AcDbCircle
 10
157.2206663001512
 20
256.5995473475231
 30
0.0
 40
8.800000000000011
100
AcDbArc
 50
180.0
 51
205.1140584297669
  0
ARC
  5
22B
330
1F
100
AcDbEntity
  8
0
  6
Continuous
 62
     7
100
AcDbCircle
 10
189.4107561702948
 20
222.8759356282719
 30
0.0
 40
0.625
100
AcDbArc
 50
0.0
 51
180.0
  0
ARC
  5
22C
330
1F
100
AcDbEntity
  8
0
  6
Continuous
 62
     7
100
AcDbCircle
 10
157.1857561702948
 20
256.5646372176666
 30
0.0
 40
7.5
100
AcDbArc
 50
180.0
 51
209.5599083786782
  0
ARC
  5
22D
330
1F
100
AcDbEntity
  8
0
  6
Continuous
 62
     7
100
AcDbCircle
 10
204.5357561702948
 20
220.0646372176666
 30
0.0
 40
0.625
100
AcDbArc
 50
270.0
 51
90.0
  0
ARC
  5
22E
330
1F
100
AcDbEntity
  8
0
  6
Continuous
 62
     7
100
AcDbCircle
 10
204.5357561702948
 20
222.9480510128873
 30
0.0
 40
0.6250000000000245
100
AcDbArc
 50
240.0183606311515
 51
60.01836063115145
  0
ARC
  5
22F
330
1F
100
AcDbEntity
  8
0
  6
Continuous
 62
     7
100
AcDbCircle
 10
236.8857561702948
 20
325.0646372176667
 30
0.0
 40
3.5
100
AcDbArc
 50
0.0
 51
90.0
  0
ARC
  5
230
330
1F
100
AcDbEntity
  8
0
  6
Continuous
 62
     7
100
AcDbCircle
 10
236.8857561702948
 20
256.5646372176666
 30
0.0
 40
3.499999999999886
100
AcDbArc
 50
270.0
 51
0.0
  0
ARC
  5
231
330
1F
100
AcDbEntity
  8
0
  6
Continuous
 62
     7
100
AcDbCircle
 10
236.8508460404383
 20
256.5995473475231
 30
0.0
 40
8.800000000000097
100
AcDbArc
 50
334.8859415702333
 51
0.0
  0
ARC
  5
232
330
1F
100
AcDbEntity
  8
0
  6
Continuous
 62
     7
100
AcDbCircle
 10
236.8857561702948
 20
256.5646372176666
 30
0.0
 40
7.499999999999955
100
AcDbArc
 50
330.4400916213214
 51
0.0
  0
ARC
  5
233
330
1F
100
AcDbEntity
  8
0
  6
Continuous
 62
     7
100
AcDbCircle
 10
236.8857561702948
 20
325.0646372176667
 30
0.0
 40
7.5
100
AcDbArc
 50
0.0
 51
90.0
  0
ARC
  5
234
330
1F
100
AcDbEntity
  8
0
  6
Continuous
 62
     7
100
AcDbCircle
 10
236.8508460404383
 20
325.0297270878103
 30
0.0
 40
8.800000000000097
100
AcDbArc
 50
0.0
 51
90.0
  0
ARC
  5
235
330
1F
100
AcDbEntity
  8
0
  6
Continuous
 62
     7
100
AcDbCircle
 10
157.1857561702948
 20
256.5646372176666
 30
0.0
 40
3.5
100
AcDbArc
 50
180.0
 51
270.0
  0
ARC
  5
236
330
1F
100
AcDbEntity
  8
0
  6
Continuous
 62
     7
100
AcDbCircle
 10
157.1857561702948
 20
325.0646372176667
 30
0.0
 40
3.5
100
AcDbArc
 50
90.0
 51
180.0
  0
ARC
  5
237
330
1F
100
AcDbEntity
  8
0
  6
Continuous
 62
     7
100
AcDbCircle
 10
157.1857561702948
 20
325.0646372176667
 30
0.0
 40
7.5
100
AcDbArc
 50
90.0
 51
180.0
  0
ARC
  5
238
330
1F
100
AcDbEntity
  8
0
  6
Continuous
 62
     7
100
AcDbCircle
 10
157.2206663001511
 20
325.0297270878103
 30
0.0
 40
8.799999999999955
100
AcDbArc
 50
90.0
 51
180.0
  0
ARC
  5
239
330
1F
100
AcDbEntity
  8
0
  6
Continuous
 62
     7
100
AcDbCircle
 10
222.4176403339207
 20
256.1606789539183
 30
0.0
 40
1.11146456310982
100
AcDbArc
 50
208.4019007899962
 51
218.9004530329227
  0
ARC
  5
23A
330
1F
100
AcDbEntity
  8
0
  6
Continuous
 62
     7
100
AcDbCircle
 10
222.4176403339205
 20
254.4286281463493
 30
0.0
 40
1.111464563109537
100
AcDbArc
 50
208.4019007899907
 51
218.9004530329178
  0
ARC
  5
23B
330
1F
100
AcDbEntity
  8
0
  6
Continuous
 62
     7
100
AcDbCircle
 10
171.6538720066696
 20
254.4286281463489
 30
0.0
 40
1.111464563108818
100
AcDbArc
 50
321.0995469670789
 51
331.5980992100148
  0
ARC
  5
23C
330
1F
100
AcDbEntity
  8
0
  6
Continuous
 62
     7
100
AcDbCircle
 10
171.6538720066689
 20
256.1606789539183
 30
0.0
 40
1.111464563109724
100
AcDbArc
 50
321.099546967077
 51
331.5980992100032
  0
ARC
  5
23D
330
1F
100
AcDbEntity
  8
0
  6
Continuous
 62
     7
100
AcDbCircle
 10
197.0357561702948
 20
212.8543003455229
 30
0.0
 40
0.6249999999999261
100
AcDbArc
 50
240.0183606311462
 51
60.01836063115145
  0
ARC
  5
23E
330
1F
100
AcDbEntity
  8
0
  6
Continuous
 62
     7
100
AcDbCircle
 10
199.5357561702948
 20
214.2966080378306
 30
0.0
 40
0.625
100
AcDbArc
 50
180.0
 51
0.0
  0
ARC
  5
23F
330
1F
100
AcDbEntity
  8
0
  6
Continuous
 62
     7
100
AcDbCircle
 10
202.0357561702948
 20
215.7389157301383
 30
0.0
 40
0.625
100
AcDbArc
 50
180.0
 51
299.9816393688485
  0
ARC
  5
240
330
1F
100
AcDbEntity
  8
0
  6
Continuous
 62
     7
100
AcDbCircle
 10
194.5357561702948
 20
217.2533388070614
 30
0.0
 40
0.625
100
AcDbArc
 50
180.0
 51
0.0
  0
ARC
  5
241
330
1F
100
AcDbEntity
  8
0
  6
Continuous
 62
     7
100
AcDbCircle
 10
191.9107561702948
 20
215.8110311147537
 30
0.0
 40
0.625
100
AcDbArc
 50
180.0
 51
240.0183606311515
  0
ARC
  5
242
330
1F
100
AcDbEntity
  8
0
  6
Continuous
 62
     7
100
AcDbCircle
 10
189.4107561702948
 20
217.2533388070614
 30
0.0
 40
0.625
100
AcDbArc
 50
180.0
 51
0.0
  0
ARC
  5
243
330
1F
100
AcDbEntity
  8
0
  6
Continuous
 62
     7
100
AcDbCircle
 10
204.5357561702948
 20
217.181223422446
 30
0.0
 40
0.6250000000000245
100
AcDbArc
 50
299.9816393688485
 51
119.9816393688485
  0
ARC
  5
244
330
1F
100
AcDbEntity
  8
0
  6
Continuous
 62
     7
100
AcDbCircle
 10
444.6680325049272
 20
252.8646372176667
 30
0.0
 40
3.000000000000074
100
AcDbArc
 50
119.9999999999992
 51
180.0
  0
ARC
  5
245
330
1F
100
AcDbEntity
  8
0
  6
Continuous
 62
     7
100
AcDbCircle
 10
444.6680325049272
 20
252.8646372176667
 30
0.0
 40
1.000000000000302
100
AcDbArc
 50
120.0000000000126
 51
180.0
  0
ARC
  5
246
330
1F
100
AcDbEntity
  8
0
  6
Continuous
 62
     7
100
AcDbCircle
 10
395.6680325049272
 20
248.0646372176668
 30
0.0
 40
5.000000000000065
100
AcDbArc
 50
251.3587271066846
 51
277.2158836667949
  0
ARC
  5
247
330
1F
100
AcDbEntity
  8
0
  6
Continuous
 62
     7
100
AcDbCircle
 10
400.6680325049272
 20
236.341472009242
 30
0.0
 40
2.399999999999917
100
AcDbArc
 50
353.3763122599728
 51
0.0
  0
ARC
  5
248
330
1F
100
AcDbEntity
  8
0
  6
Continuous
 62
     7
100
AcDbCircle
 10
435.704308245593
 20
239.3646372176667
 30
0.0
 40
1.5
100
AcDbArc
 50
90.0
 51
119.9999999999995
  0
ARC
  5
249
330
1F
100
AcDbEntity
  8
0
  6
Continuous
 62
     7
100
AcDbCircle
 10
400.6680325049272
 20
236.341472009242
 30
0.0
 40
2.39999999999996
100
AcDbArc
 50
300.0000000000002
 51
353.3763122599728
  0
ARC
  5
24A
330
1F
100
AcDbEntity
  8
0
  6
Continuous
 62
     7
100
AcDbCircle
 10
400.6680325049272
 20
240.9646372176667
 30
0.0
 40
2.39999999999975
100
AcDbArc
 50
0.0
 51
90.0
  0
ARC
  5
24B
330
1F
100
AcDbEntity
  8
0
  6
Continuous
 62
     7
100
AcDbCircle
 10
390.1680325049272
 20
248.8646372176667
 30
0.0
 40
4.0
100
AcDbArc
 50
90.0
 51
251.3587271066806
  0
ARC
  5
24C
330
1F
100
AcDbEntity
  8
0
  6
Continuous
 62
     7
100
AcDbCircle
 10
398.6680325049272
 20
185.3046372176668
 30
0.0
 40
30.25000000000005
100
AcDbArc
 50
304.1930792694635
 51
235.8069207305365
  0
ARC
  5
24D
330
1F
100
AcDbEntity
  8
0
  6
Continuous
 62
     7
100
AcDbCircle
 10
340.1680325049272
 20
239.8146372176668
 30
0.0
 40
1.0
100
AcDbArc
 50
90.0
 51
180.0
  0
ARC
  5
24E
330
1F
100
AcDbEntity
  8
0
  6
Continuous
 62
     7
100
AcDbCircle
 10
331.1680325049271
 20
254.0646372176667
 30
0.0
 40
3.0
100
AcDbArc
 50
180.0
 51
270.0
  0
ARC
  5
24F
330
1F
100
AcDbEntity
  8
0
  6
Continuous
 62
     7
100
AcDbCircle
 10
331.1680325049271
 20
327.5646372176668
 30
0.0
 40
3.0
100
AcDbArc
 50
90.0
 51
180.0
  0
ARC
  5
250
330
1F
100
AcDbEntity
  8
0
  6
Continuous
 62
     7
100
AcDbCircle
 10
398.6680325049272
 20
226.0646372176668
 30
0.0
 40
5.499999999999984
100
AcDbArc
 50
120.0000000000001
 51
299.9999999999964
  0
ARC
  5
251
330
1F
100
AcDbEntity
  8
0
  6
Continuous
 62
     7
100
AcDbCircle
 10
340.1680325049271
 20
210.3146372176668
 30
0.0
 40
0.9999999999998863
100
AcDbArc
 50
180.0
 51
270.0
  0
ARC
  5
252
330
1F
100
AcDbEntity
  8
0
  6
Continuous
 62
     7
100
AcDbCircle
 10
336.6680325049271
 20
290.8146372176668
 30
0.0
 40
4.500000000000022
100
AcDbArc
 50
87.13401601740014
 51
90.0
  0
ARC
  5
253
330
1F
100
AcDbEntity
  8
0
  6
Continuous
 62
     7
100
AcDbCircle
 10
336.6680325049271
 20
290.8146372176668
 30
0.0
 40
4.500000000000114
100
AcDbArc
 50
270.0
 51
272.8659839825999
  0
ARC
  5
254
330
1F
100
AcDbEntity
  8
0
  6
Continuous
 62
     7
100
AcDbCircle
 10
336.7680325049272
 20
292.8121356532106
 30
0.0
 40
2.5
100
AcDbArc
 50
0.0
 51
87.13401601740121
  0
ARC
  5
255
330
1F
100
AcDbEntity
  8
0
  6
Continuous
 62
     7
100
AcDbCircle
 10
336.7680325049272
 20
288.8171387821229
 30
0.0
 40
2.499999999999947
100
AcDbArc
 50
272.8659839825989
 51
0.0
  0
ARC
  5
256
330
1F
100
AcDbEntity
  8
0
  6
Continuous
 62
     7
100
AcDbCircle
 10
336.6680325049271
 20
290.8146372176668
 30
0.0
 40
4.5
100
AcDbArc
 50
90.0
 51
270.0
  0
ARC
  5
257
330
1F
100
AcDbEntity
  8
1
  6
DASHED
 62
     7
100
AcDbCircle
 10
398.6680325049272
 20
226.0646372176668
 30
0.0
 40
66.42978951300768
100
AcDbArc
 50
0.0
 51
32.76925942815163
  0
ARC
  5
258
330
1F
100
AcDbEntity
  8
1
  6
DASHED
 62
     7
100
AcDbCircle
 10
398.6680325049272
 20
226.0646372176668
 30
0.0
 40
66.42978951300755
100
AcDbArc
 50
32.76925942815163
 51
50.09056021420131
  0
CIRCLE
  5
259
330
1F
100
AcDbEntity
  8
0
  6
Continuous
 62
     7
100
AcDbCircle
 10
398.6680325049272
 20
185.3046372176668
 30
0.0
 40
22.74000000000001
  0
CIRCLE
  5
25A
330
1F
100
AcDbEntity
  8
0
  6
Continuous
 62
     7
100
AcDbCircle
 10
398.6680325049272
 20
226.0646372176668
 30
0.0
 40
4.5
  0
CIRCLE
  5
25B
330
1F
100
AcDbEntity
  8
0
  6
Continuous
 62
     7
100
AcDbCircle
 10
398.6680325049272
 20
226.0646372176668
 30
0.0
 40
3.5
  0
CIRCLE
  5
25C
330
1F
100
AcDbEntity
  8
0
  6
Continuous
 62
     7
100
AcDbCircle
 10
398.6680325049272
 20
185.3046372176668
 30
0.0
 40
19.73999999999998
  0
SPLINE
  5
25D
330
1F
100
AcDbEntity
  8
0
  6
Continuous
 62
     7
100
AcDbSpline
210
0.0
220
0.0
230
1.0
 70
    24
 71
     3
 72
     9
 73
     5
 74
     3
 42
0.000000001
 43
0.0000000001
 44
0.00000001
 40
0.0
 40
0.0
 40
0.0
 40
0.0
 40
0.0028142600132242
 40
0.0056285200263915
 40
0.0056285200263915
 40
0.0056285200263915
 40
0.0056285200263915
 10
250.3857561702948
 20
295.3146372176667
 30
0.0
 10
250.3857561702948
 20
295.3136991309956
 30
0.0
 10
250.3857561702948
 20
295.3118229576535
 30
0.0
 10
250.3857561702948
 20
295.3099467843114
 30
0.0
 10
250.3857561702948
 20
295.3090086976403
 30
0.0
 11
250.3857561702948
 21
295.3146372176667
 31
0.0
 11
250.3857561702948
 21
295.3118229576535
 31
0.0
 11
250.3857561702948
 21
295.3090086976403
 31
0.0
  0
SPLINE
  5
25E
330
1F
100
AcDbEntity
  8
0
  6
Continuous
 62
     7
100
AcDbSpline
210
0.0
220
0.0
230
1.0
 70
    24
 71
     3
 72
     9
 73
     5
 74
     3
 42
0.000000001
 43
0.0000000001
 44
0.00000001
 40
0.0
 40
0.0
 40
0.0
 40
0.0
 40
0.0028142600132242
 40
0.0056285200262778
 40
0.0056285200262778
 40
0.0056285200262778
 40
0.0056285200262778
 10
250.3857561702948
 20
286.320265737693
 30
0.0
 10
250.3857561702947
 20
286.3193276510219
 30
0.0
 10
250.3857561702948
 20
286.3174514776798
 30
0.0
 10
250.3857561702948
 20
286.3155753043376
 30
0.0
 10
250.3857561702948
 20
286.3146372176667
 30
0.0
 11
250.3857561702948
 21
286.320265737693
 31
0.0
 11
250.3857561702948
 21
286.3174514776798
 31
0.0
 11
250.3857561702948
 21
286.3146372176667
 31
0.0
  0
SPLINE
  5
25F
330
1F
100
AcDbEntity
  8
0
  6
Continuous
 62
     7
100
AcDbSpline
210
0.0
220
0.0
230
1.0
 70
    24
 71
     3
 72
     9
 73
     5
 74
     3
 42
0.000000001
 43
0.0000000001
 44
0.00000001
 40
0.0
 40
0.0
 40
0.0
 40
0.0
 40
0.0028142600131673
 40
0.0056285200263915
 40
0.0056285200263915
 40
0.0056285200263915
 40
0.0056285200263915
 10
143.6857561702948
 20
295.3090086976403
 30
0.0
 10
143.6857561702948
 20
295.3099467843114
 30
0.0
 10
143.6857561702948
 20
295.3118229576535
 30
0.0
 10
143.6857561702948
 20
295.3136991309957
 30
0.0
 10
143.6857561702948
 20
295.3146372176667
 30
0.0
 11
143.6857561702948
 21
295.3090086976403
 31
0.0
 11
143.6857561702948
 21
295.3118229576535
 31
0.0
 11
143.6857561702948
 21
295.3146372176667
 31
0.0
  0
SPLINE
  5
260
330
1F
100
AcDbEntity
  8
0
  6
Continuous
 62
     7
100
AcDbSpline
210
0.0
220
0.0
230
1.0
 70
    24
 71
     3
 72
     9
 73
     5
 74
     3
 42
0.000000001
 43
0.0000000001
 44
0.00000001
 40
0.0
 40
0.0
 40
0.0
 40
0.0
 40
0.0028142600131673
 40
0.0056285200263915
 40
0.0056285200263915
 40
0.0056285200263915
 40
0.0056285200263915
 10
143.6857561702948
 20
286.3146372176666
 30
0.0
 10
143.6857561702948
 20
286.3155753043376
 30
0.0
 10
143.6857561702947
 20
286.3174514776798
 30
0.0
 10
143.6857561702948
 20
286.3193276510219
 30
0.0
 10
143.6857561702948
 20
286.320265737693
 30
0.0
 11
143.6857561702948
 21
286.3146372176666
 31
0.0
 11
143.6857561702948
 21
286.3174514776798
 31
0.0
 11
143.6857561702948
 21
286.320265737693
 31
0.0
  0
SPLINE
  5
261
330
1F
100
AcDbEntity
  8
0
  6
Continuous
 62
     7
100
AcDbSpline
210
0.0
220
0.0
230
1.0
 70
     8
 71
     3
 72
    14
 73
    10
 74
     8
 42
0.000000001
 43
0.0000000001
 44
0.00000001
 40
0.0
 40
0.0
 40
0.0
 40
0.0
 40
0.7594376604327211
 40
1.339986998003942
 40
1.712439463912295
 40
2.170290556829517
 40
2.566238258091328
 40
2.782780910284653
 40
2.964278611459982
 40
2.964278611459982
 40
2.964278611459982
 40
2.964278611459982
 10
224.3377371342317
 20
252.8646372176666
 30
0.0
 10
224.084347133915
 20
252.8746418968905
 30
0.0
 10
223.6372540769985
 20
252.8922946299593
 30
0.0
 10
223.0764449254029
 20
253.0101833086085
 30
0.0
 10
222.6273155317938
 20
253.150618018225
 30
0.0
 10
222.2497727550801
 20
253.3095621882958
 30
0.0
 10
221.9359259569637
 20
253.4802006523277
 30
0.0
 10
221.7119062729387
 20
253.6212900020571
 30
0.0
 10
221.6025295586934
 20
253.6964096830166
 30
0.0
 10
221.5526561715788
 20
253.7306626214512
 30
0.0
 11
224.3377371342317
 21
252.8646372176666
 31
0.0
 11
223.5802199303982
 21
252.9186117110823
 31
0.0
 11
223.0115318382498
 21
253.0353652470278
 31
0.0
 11
222.6562480163516
 21
253.1471429090503
 31
0.0
 11
222.2343136957306
 21
253.3249041344377
 31
0.0
 11
221.8861557053903
 21
253.5134793096238
 31
0.0
 11
221.7028851857889
 21
253.6288163685313
 31
0.0
 11
221.5526561715788
 21
253.7306626214512
 31
0.0
  0
SPLINE
  5
262
330
1F
100
AcDbEntity
  8
0
  6
Continuous
 62
     7
100
AcDbSpline
210
0.0
220
0.0
230
1.0
 70
     8
 71
     3
 72
    15
 73
    11
 74
     9
 42
0.000000001
 43
0.0000000001
 44
0.00000001
 40
0.0
 40
0.0
 40
0.0
 40
0.0
 40
0.4380329889562831
 40
0.9127386256205348
 40
1.443447486181539
 40
1.935405308734293
 40
2.495145383514123
 40
3.047808251878418
 40
3.56659217612916
 40
4.012025249105839
 40
4.012025249105839
 40
4.012025249105839
 40
4.012025249105839
 10
224.3377371342317
 20
252.8646372176666
 30
0.0
 10
224.191397624516
 20
252.8751600059931
 30
0.0
 10
223.8864668874876
 20
252.8970865772434
 30
0.0
 10
223.4329327542325
 20
253.077546806049
 30
0.0
 10
223.0149968825459
 20
253.3549999497762
 30
0.0
 10
222.6322999980319
 20
253.7209985519484
 30
0.0
 10
222.2972435754086
 20
254.1394142368672
 30
0.0
 10
222.0022935255761
 20
254.5969568715763
 30
0.0
 10
221.7583731780807
 20
255.040213482906
 30
0.0
 10
221.6176603569037
 20
255.329208344828
 30
0.0
 10
221.5526561715788
 20
255.4627134290199
 30
0.0
 11
224.3377371342317
 21
252.8646372176666
 31
0.0
 11
223.9028979771273
 21
252.9174369395647
 31
0.0
 11
223.4583936739166
 21
253.0840543771442
 31
0.0
 11
223.0144449225028
 21
253.3748488134327
 31
0.0
 11
222.6562877800397
 21
253.7121112661177
 31
0.0
 11
222.3036579068562
 21
254.1468078555735
 31
0.0
 11
222.0018732887731
 21
254.6098006101049
 31
0.0
 11
221.7507284171533
 21
255.0637422507071
 31
0.0
 11
221.5526561715788
 21
255.4627134290199
 31
0.0
  0
SPLINE
  5
263
330
1F
100
AcDbEntity
  8
0
  6
Continuous
 62
     7
100
AcDbSpline
210
0.0
220
0.0
230
1.0
 70
     8
 71
     3
 72
    11
 73
     7
 74
     5
 42
0.000000001
 43
0.0000000001
 44
0.00000001
 40
0.0
 40
0.0
 40
0.0
 40
0.0
 40
1.612662772022291
 40
3.099694060257923
 40
4.361972021508544
 40
5.363145505161616
 40
5.363145505161616
 40
5.363145505161616
 40
5.363145505161616
 10
179.8916289966564
 20
262.0202356329431
 30
0.0
 10
179.352405482652
 20
261.9964749294223
 30
0.0
 10
178.3159656576939
 20
261.9508045437802
 30
0.0
 10
176.9119179981194
 20
261.5673473517643
 30
0.0
 10
175.7431609613985
 20
261.032608756344
 30
0.0
 10
175.2708938211702
 20
260.4326555276004
 30
0.0
 10
175.0619998652111
 20
260.1672832456993
 30
0.0
 11
179.8916289966564
 21
262.0202356329431
 31
0.0
 11
178.2844333055733
 21
261.8875585477663
 31
0.0
 11
176.8478218516128
 21
261.5036189836712
 31
0.0
 11
175.7342851655283
 21
260.9091598021658
 31
0.0
 11
175.0619998652111
 21
260.1672832456993
 31
0.0
  0
SPLINE
  5
264
330
1F
100
AcDbEntity
  8
0
  6
Continuous
 62
     7
100
AcDbSpline
210
0.0
220
0.0
230
1.0
 70
     8
 71
     3
 72
    14
 73
    10
 74
     8
 42
0.000000001
 43
0.0000000001
 44
0.00000001
 40
0.0
 40
0.0
 40
0.0
 40
0.0
 40
0.7594376603961426
 40
1.339986997959687
 40
1.712439463901762
 40
2.170290556852297
 40
2.566238258196461
 40
2.782780910322311
 40
2.964278611459846
 40
2.964278611459846
 40
2.964278611459846
 40
2.964278611459846
 10
169.7337752063579
 20
252.8646372176666
 30
0.0
 10
169.9871652066623
 20
252.8746418968896
 30
0.0
 10
170.4342582635639
 20
252.8922946299569
 30
0.0
 10
170.9950674151571
 20
253.010183308601
 30
0.0
 10
171.444196808786
 20
253.1506180182204
 30
0.0
 10
171.8217395855457
 20
253.309562188311
 30
0.0
 10
172.1355863836737
 20
253.4802006523555
 30
0.0
 10
172.3596060676903
 20
253.6212900020838
 30
0.0
 10
172.4689827819065
 20
253.6964096830237
 30
0.0
 10
172.5188561690107
 20
253.7306626214512
 30
0.0
 11
169.7337752063579
 21
252.8646372176666
 31
0.0
 11
170.4912924101552
 21
252.918611711077
 31
0.0
 11
171.0599805022969
 21
253.0353652470165
 31
0.0
 11
171.415264324228
 21
253.1471429090468
 31
0.0
 11
171.8371986448795
 21
253.3249041344476
 31
0.0
 11
172.1853566352895
 21
253.5134793096779
 31
0.0
 11
172.3686271548323
 21
253.628816368552
 31
0.0
 11
172.5188561690107
 21
253.7306626214512
 31
0.0
  0
SPLINE
  5
265
330
1F
100
AcDbEntity
  8
0
  6
Continuous
 62
     7
100
AcDbSpline
210
0.0
220
0.0
230
1.0
 70
     8
 71
     3
 72
    15
 73
    11
 74
     9
 42
0.000000001
 43
0.0000000001
 44
0.00000001
 40
0.0
 40
0.0
 40
0.0
 40
0.0
 40
0.5067405695547627
 40
0.9125944759442886
 40
1.443303335695275
 40
1.935261157424773
 40
2.495001232006682
 40
3.047664100389793
 40
3.566448024895032
 40
4.011881097777561
 40
4.011881097777561
 40
4.011881097777561
 40
4.011881097777561
 10
169.7337752063579
 20
252.8646372176666
 30
0.0
 10
169.9032175349663
 20
252.8785560081585
 30
0.0
 10
170.2083680230094
 20
252.9036225186595
 30
0.0
 10
170.6576028301927
 20
253.0903972853935
 30
0.0
 10
171.0565683504027
 20
253.3549746950727
 30
0.0
 10
171.4391964927635
 20
253.7210061204169
 30
0.0
 10
171.7742731873585
 20
254.1394121252229
 30
0.0
 10
172.069217715734
 20
254.5969573963957
 30
0.0
 10
172.3131393856976
 20
255.040213376319
 30
0.0
 10
172.4538520543881
 20
255.3292083111033
 30
0.0
 10
172.5188561690107
 20
255.46271342902
 30
0.0
 11
169.7337752063579
 21
252.8646372176666
 31
0.0
 11
170.2355960466426
 21
252.9350776418566
 31
0.0
 11
170.6131186668724
 21
253.0840543772457
 31
0.0
 11
171.0570674179281
 21
253.3748488133046
 31
0.0
 11
171.4152245600867
 21
253.7121112656166
 31
0.0
 11
171.7678544333592
 21
254.1468078550535
 31
0.0
 11
172.0696390515567
 21
254.6098006096678
 31
0.0
 11
172.3207839233289
 21
255.0637422504997
 31
0.0
 11
172.5188561690107
 21
255.46271342902
 31
0.0
  0
SPLINE
  5
266
330
1F
100
AcDbEntity
  8
0
  6
Continuous
 62
     7
100
AcDbSpline
210
0.0
220
0.0
230
1.0
 70
     8
 71
     3
 72
    11
 73
     7
 74
     5
 42
0.000000001
 43
0.0000000001
 44
0.00000001
 40
0.0
 40
0.0
 40
0.0
 40
0.0
 40
1.612662772022291
 40
3.099694060257923
 40
4.361972021508517
 40
5.363145505161548
 40
5.363145505161548
 40
5.363145505161548
 40
5.363145505161548
 10
179.8916289966564
 20
260.2881848253743
 30
0.0
 10
179.352405482652
 20
260.2644241218534
 30
0.0
 10
178.3159656576939
 20
260.2187537362115
 30
0.0
 10
176.9119179981194
 20
259.8352965441954
 30
0.0
 10
175.7431609613985
 20
259.3005579487752
 30
0.0
 10
175.2708938211703
 20
258.7006047200317
 30
0.0
 10
175.0619998652111
 20
258.4352324381306
 30
0.0
 11
179.8916289966564
 21
260.2881848253743
 31
0.0
 11
178.2844333055733
 21
260.1555077401974
 31
0.0
 11
176.8478218516128
 21
259.7715681761023
 31
0.0
 11
175.7342851655283
 21
259.177108994597
 31
0.0
 11
175.0619998652111
 21
258.4352324381306
 31
0.0
  0
SPLINE
  5
267
330
1F
100
AcDbEntity
  8
0
  6
Continuous
 62
     7
100
AcDbSpline
210
0.0
220
0.0
230
1.0
 70
     8
 71
     3
 72
    11
 73
     7
 74
     5
 42
0.000000001
 43
0.0000000001
 44
0.00000001
 40
0.0
 40
0.0
 40
0.0
 40
0.0
 40
1.001173483653011
 40
2.263451444903655
 40
3.750482733139232
 40
5.363145505161636
 40
5.363145505161636
 40
5.363145505161636
 40
5.363145505161636
 10
219.0095124753785
 20
258.4352324381306
 30
0.0
 10
218.8006185194193
 20
258.7006047200316
 30
0.0
 10
218.3283513791911
 20
259.3005579487753
 30
0.0
 10
217.1595943424702
 20
259.8352965441953
 30
0.0
 10
215.7555466828957
 20
260.2187537362115
 30
0.0
 10
214.7191068579375
 20
260.2644241218535
 30
0.0
 10
214.1798833439331
 20
260.2881848253743
 30
0.0
 11
219.0095124753785
 21
258.4352324381306
 31
0.0
 11
218.3372271750614
 21
259.177108994597
 31
0.0
 11
217.2236904889767
 21
259.7715681761023
 31
0.0
 11
215.7870790350163
 21
260.1555077401974
 31
0.0
 11
214.1798833439331
 21
260.2881848253743
 31
0.0
  0
SPLINE
  5
268
330
1F
100
AcDbEntity
  8
0
  6
Continuous
 62
     7
100
AcDbSpline
210
0.0
220
0.0
230
1.0
 70
     8
 71
     3
 72
    11
 73
     7
 74
     5
 42
0.000000001
 43
0.0000000001
 44
0.00000001
 40
0.0
 40
0.0
 40
0.0
 40
0.0
 40
1.001173483652969
 40
2.26345144490364
 40
3.750482733139217
 40
5.363145505161621
 40
5.363145505161621
 40
5.363145505161621
 40
5.363145505161621
 10
219.0095124753785
 20
260.1672832456994
 30
0.0
 10
218.8006185194194
 20
260.4326555276004
 30
0.0
 10
218.3283513791911
 20
261.0326087563441
 30
0.0
 10
217.1595943424702
 20
261.5673473517642
 30
0.0
 10
215.7555466828957
 20
261.9508045437803
 30
0.0
 10
214.7191068579376
 20
261.9964749294224
 30
0.0
 10
214.1798833439331
 20
262.0202356329431
 30
0.0
 11
219.0095124753785
 21
260.1672832456994
 31
0.0
 11
218.3372271750614
 21
260.9091598021658
 31
0.0
 11
217.2236904889767
 21
261.5036189836712
 31
0.0
 11
215.7870790350163
 21
261.8875585477663
 31
0.0
 11
214.1798833439331
 21
262.0202356329431
 31
0.0
  0
DIMENSION
  5
274
330
1F
100
AcDbEntity
  8
1
100
AcDbDimension
  2
*D2
 10
134.5357561702948
 20
106.0646372176666
 30
0.0
 11
197.0357561702948
 21
113.0646372176666
 31
0.0
 70
    32
  1
<>
 71
     5
 42
-1.0
 53
0.00013888888889
  3
ME10_DIM_10
100
AcDbAlignedDimension
 13
259.5357561702948
 23
146.0646372176666
 33
0.0
 14
134.5357561702948
 24
146.0646372176666
 34
0.0
100
AcDbRotatedDimension
  0
DIMENSION
  5
27F
330
1F
100
AcDbEntity
  8
1
100
AcDbDimension
  2
*D3
 10
356.6680325049272
 20
106.0646372176666
 30
0.0
 11
398.6680325049272
 21
113.0646372176666
 31
0.0
 70
    32
  1
<>
 71
     5
 42
-1.0
 53
0.00013888888889
  3
ME10_DIM_11
100
AcDbAlignedDimension
 13
440.6680325049272
 23
146.0646372176668
 33
0.0
 14
356.6680325049272
 24
146.0646372176668
 34
0.0
100
AcDbRotatedDimension
  0
DIMENSION
  5
28A
330
1F
100
AcDbEntity
  8
1
100
AcDbDimension
  2
*D4
 10
328.1680325049271
 20
350.0646372176668
 30
0.0
 11
396.632927261431
 21
357.0646372176668
 31
0.0
 70
    32
  1
145
 71
     5
 42
-1.0
 53
0.00013888888889
  3
ME10_DIM_12
100
AcDbAlignedDimension
 13
465.0978220179349
 23
226.0646372176668
 33
0.0
 14
328.1680325049271
 24
327.5646372176668
 34
0.0
100
AcDbRotatedDimension
  0
DIMENSION
  5
297
330
1F
100
AcDbEntity
  8
1
100
AcDbDimension
  2
*D5
 10
460.6680325049272
 20
146.0646372176668
 30
0.0
 11
453.6680325049272
 21
161.0646372176668
 31
0.0
 70
    32
  1
<>
 71
     5
 42
-1.0
 53
90.0
  3
ME10_DIM_13
100
AcDbAlignedDimension
 13
440.6680325049272
 23
151.0646372176668
 33
0.0
 14
440.6680325049272
 24
146.0646372176668
 34
0.0
 50
90.0
100
AcDbRotatedDimension
  0
DIMENSION
  5
2A2
330
1F
100
AcDbEntity
  8
1
100
AcDbDimension
  2
*D6
 10
480.6680325049272
 20
146.0646372176668
 30
0.0
 11
473.6680325049272
 21
191.0646372176668
 31
0.0
 70
    32
  1
<>
 71
     5
 42
-1.0
 53
90.0
  3
ME10_DIM_14
100
AcDbAlignedDimension
 13
440.9180325049272
 23
236.0646372176668
 33
0.0
 14
440.6680325049272
 24
146.0646372176668
 34
0.0
 50
90.0
100
AcDbRotatedDimension
  0
DIMENSION
  5
2AD
330
1F
100
AcDbEntity
  8
1
100
AcDbDimension
  2
*D7
 10
279.5357561702948
 20
205.0446372176668
 30
0.0
 11
272.5357561702948
 21
185.3046372176668
 31
0.0
 70
    32
  1
PG36
 71
     5
 42
-1.0
 53
90.0
  3
ME10_DIM_15
100
AcDbAlignedDimension
 13
259.557314377077
 23
165.5646372176668
 33
0.0
 14
259.557314377077
 24
205.0446372176668
 34
0.0
 50
90.0
100
AcDbRotatedDimension
  0
DIMENSION
  5
2B8
330
1F
100
AcDbEntity
  8
1
100
AcDbDimension
  2
*D8
 10
141.0357561702948
 20
126.0646372176666
 30
0.0
 11
197.0357561702948
 21
133.0646372176666
 31
0.0
 70
    32
  1
<>
 71
     5
 42
-1.0
 53
0.00013888888889
  3
ME10_DIM_16
100
AcDbAlignedDimension
 13
253.0357561702948
 23
143.0646372176666
 33
0.0
 14
141.0357561702948
 24
143.0646372176666
 34
0.0
100
AcDbRotatedDimension
  0
DIMENSION
  5
2C3
330
1F
100
AcDbEntity
  8
1
100
AcDbDimension
  2
*D9
 10
365.1680325049272
 20
126.0646372176666
 30
0.0
 11
398.6680325049272
 21
133.0646372176666
 31
0.0
 70
    32
  1
<>
 71
     5
 42
-1.0
 53
0.00013888888889
  3
ME10_DIM_17
100
AcDbAlignedDimension
 13
432.1680325049272
 23
143.0646372176666
 33
0.0
 14
365.1680325049272
 24
143.0646372176666
 34
0.0
100
AcDbRotatedDimension
  0
ENDSEC
  0
SECTION
  2
OBJECTS
  0
DICTIONARY
  5
C
330
0
100
AcDbDictionary
281
     1
  3
ACAD_GROUP
350
D
  3
ACAD_LAYOUT
350
1A
  3
ACAD_MATERIAL
350
3B
  3
ACAD_MLEADERSTYLE
350
2C6
  3
ACAD_MLINESTYLE
350
17
  3
ACAD_PLOTSETTINGS
350
19
  3
ACAD_PLOTSTYLENAME
350
E
  3
ACAD_VISUALSTYLE
350
2A
  3
AcDbVariableDictionary
350
2C4
  0
DICTIONARY
  5
D
102
{ACAD_REACTORS
330
C
102
}
330
C
100
AcDbDictionary
281
     1
  0
DICTIONARY
  5
1A
102
{ACAD_REACTORS
330
C
102
}
330
C
100
AcDbDictionary
281
     1
  3
Layout1
350
1E
  3
Layout2
350
26
  3
Model
350
22
  0
DICTIONARY
  5
3B
102
{ACAD_REACTORS
330
C
102
}
330
C
100
AcDbDictionary
281
     1
  3
ByBlock
350
3D
  3
ByLayer
350
3C
  3
Global
350
3E
  0
DICTIONARY
  5
2C6
102
{ACAD_REACTORS
330
C
102
}
330
C
100
AcDbDictionary
281
     1
  0
DICTIONARY
  5
17
102
{ACAD_REACTORS
330
C
102
}
330
C
100
AcDbDictionary
281
     1
  3
Standard
350
18
  0
DICTIONARY
  5
19
102
{ACAD_REACTORS
330
C
102
}
330
C
100
AcDbDictionary
281
     1
  0
ACDBDICTIONARYWDFLT
  5
E
102
{ACAD_REACTORS
330
C
102
}
330
C
100
AcDbDictionary
281
     1
  3
Normal
350
F
100
AcDbDictionaryWithDefault
340
F
  0
DICTIONARY
  5
2A
102
{ACAD_REACTORS
330
C
102
}
330
C
100
AcDbDictionary
281
     1
  3
2dWireframe
350
2F
  3
3D Hidden
350
31
  3
3dWireframe
350
30
  3
Basic
350
32
  3
Brighten
350
36
  3
ColorChange
350
3A
  3
Conceptual
350
34
  3
Dim
350
35
  3
Facepattern
350
39
  3
Flat
350
2B
  3
FlatWithEdges
350
2C
  3
Gouraud
350
2D
  3
GouraudWithEdges
350
2E
  3
Linepattern
350
38
  3
Realistic
350
33
  3
Thicken
350
37
  0
DICTIONARY
  5
2C4
102
{ACAD_REACTORS
330
C
102
}
330
C
100
AcDbDictionary
281
     1
  3
DIMASSOC
350
2C7
  3
HIDETEXT
350
2C8
  0
LAYOUT
  5
1E
102
{ACAD_REACTORS
330
1A
102
}
330
1A
100
AcDbPlotSettings
  1

  2
none_device
  4

  6

 40
0.0
 41
0.0
 42
0.0
 43
0.0
 44
0.0
 45
0.0
 46
0.0
 47
0.0
 48
0.0
 49
0.0
140
0.0
141
0.0
142
1.0
143
1.0
 70
   688
 72
     0
 73
     0
 74
     5
  7

 75
    16
147
1.0
148
0.0
149
0.0
100
AcDbLayout
  1
Layout1
 70
     1
 71
     1
 10
0.0
 20
0.0
 11
12.0
 21
9.0
 12
0.0
 22
0.0
 32
0.0
 14
1.00000000000000E+20
 24
1.00000000000000E+20
 34
1.00000000000000E+20
 15
-1.00000000000000E+20
 25
-1.00000000000000E+20
 35
-1.00000000000000E+20
146
0.0
 13
0.0
 23
0.0
 33
0.0
 16
1.0
 26
0.0
 36
0.0
 17
0.0
 27
1.0
 37
0.0
 76
     0
330
1B
  0
LAYOUT
  5
26
102
{ACAD_REACTORS
330
1A
102
}
330
1A
100
AcDbPlotSettings
  1

  2
none_device
  4

  6

 40
0.0
 41
0.0
 42
0.0
 43
0.0
 44
0.0
 45
0.0
 46
0.0
 47
0.0
 48
0.0
 49
0.0
140
0.0
141
0.0
142
1.0
143
1.0
 70
   688
 72
     0
 73
     0
 74
     5
  7

 75
    16
147
1.0
148
0.0
149
0.0
100
AcDbLayout
  1
Layout2
 70
     1
 71
     2
 10
0.0
 20
0.0
 11
0.0
 21
0.0
 12
0.0
 22
0.0
 32
0.0
 14
0.0
 24
0.0
 34
0.0
 15
0.0
 25
0.0
 35
0.0
146
0.0
 13
0.0
 23
0.0
 33
0.0
 16
1.0
 26
0.0
 36
0.0
 17
0.0
 27
1.0
 37
0.0
 76
     0
330
23
  0
LAYOUT
  5
22
102
{ACAD_REACTORS
330
1A
102
}
330
1A
100
AcDbPlotSettings
  1

  2
none_device
  4

  6

 40
0.0
 41
0.0
 42
0.0
 43
0.0
 44
0.0
 45
0.0
 46
0.0
 47
0.0
 48
0.0
 49
0.0
140
0.0
141
0.0
142
1.0
143
1.0
 70
  1712
 72
     0
 73
     0
 74
     0
  7

 75
     0
147
1.0
148
0.0
149
0.0
100
AcDbLayout
  1
Model
 70
     1
 71
     0
 10
0.0
 20
0.0
 11
12.0
 21
9.0
 12
0.0
 22
0.0
 32
0.0
 14
0.0
 24
0.0
 34
0.0
 15
594.0000000000002
 25
420.0000000000002
 35
0.0
146
0.0
 13
0.0
 23
0.0
 33
0.0
 16
1.0
 26
0.0
 36
0.0
 17
0.0
 27
1.0
 37
0.0
 76
     0
330
1F
331
29
  0
MATERIAL
  5
3D
102
{ACAD_REACTORS
330
3B
102
}
102
{ACAD_XDICTIONARY
360
2EB
102
}
330
3B
100
AcDbMaterial
  1
ByBlock
  0
MATERIAL
  5
3C
102
{ACAD_REACTORS
330
3B
102
}
102
{ACAD_XDICTIONARY
360
2E9
102
}
330
3B
100
AcDbMaterial
  1
ByLayer
  0
MATERIAL
  5
3E
102
{ACAD_REACTORS
330
3B
102
}
102
{ACAD_XDICTIONARY
360
2ED
102
}
330
3B
100
AcDbMaterial
  1
Global
  0
MLINESTYLE
  5
18
102
{ACAD_REACTORS
330
17
102
}
330
17
100
AcDbMlineStyle
  2
Standard
 70
     0
  3

 62
   256
 51
90.0
 52
90.0
 71
     2
 49
0.5
 62
   256
  6
BYLAYER
 49
-0.5
 62
   256
  6
BYLAYER
  0
ACDBPLACEHOLDER
  5
F
102
{ACAD_REACTORS
330
E
102
}
330
E
  0
VISUALSTYLE
  5
2F
102
{ACAD_REACTORS
330
2A
102
}
102
{ACAD_XDICTIONARY
360
2D1
102
}
330
2A
100
AcDbVisualStyle
  2
2dWireframe
 70
     4
 71
     0
 72
     2
 73
     0
 90
        0
 40
-0.6
 41
-30.0
 62
     5
 63
     7
 74
     1
 91
        4
 64
     7
 65
   257
 75
     1
175
     1
 42
1.0
 92
        0
 66
   257
 43
1.0
 76
     1
 77
     6
 78
     2
 67
     7
 79
     5
170
     0
171
     0
290
     0
174
     0
 93
        1
 44
0.0
173
     0
291
     0
 45
0.0
1001
ACAD
1000
AcDbSavedByObjectVersion
1070
     0
  0
VISUALSTYLE
  5
31
102
{ACAD_REACTORS
330
2A
102
}
102
{ACAD_XDICTIONARY
360
2D5
102
}
330
2A
100
AcDbVisualStyle
  2
3D Hidden
 70
     6
 71
     1
 72
     2
 73
     2
 90
        0
 40
-0.6
 41
-30.0
 62
     5
 63
     7
 74
     2
 91
        2
 64
     7
 65
   257
 75
     2
175
     1
 42
40.0
 92
        0
 66
   257
 43
1.0
 76
     1
 77
     6
 78
     2
 67
     7
 79
     3
170
     0
171
     0
290
     0
174
     0
 93
        1
 44
0.0
173
     0
291
     0
 45
0.0
1001
ACAD
1000
AcDbSavedByObjectVersion
1070
     0
  0
VISUALSTYLE
  5
30
102
{ACAD_REACTORS
330
2A
102
}
102
{ACAD_XDICTIONARY
360
2D3
102
}
330
2A
100
AcDbVisualStyle
  2
3dWireframe
 70
     5
 71
     0
 72
     2
 73
     0
 90
        0
 40
-0.6
 41
-30.0
 62
     5
 63
     7
 74
     1
 91
        4
 64
     7
 65
   257
 75
     1
175
     1
 42
1.0
 92
        0
 66
   257
 43
1.0
 76
     1
 77
     6
 78
     2
 67
     7
 79
     5
170
     0
171
     0
290
     0
174
     0
 93
        1
 44
0.0
173
     0
291
     0
 45
0.0
1001
ACAD
1000
AcDbSavedByObjectVersion
1070
     0
  0
VISUALSTYLE
  5
32
102
{ACAD_REACTORS
330
2A
102
}
102
{ACAD_XDICTIONARY
360
2D7
102
}
330
2A
100
AcDbVisualStyle
  2
Basic
 70
     7
 71
     1
 72
     0
 73
     1
 90
        0
 40
-0.6
 41
-30.0
 62
     5
 63
     7
 74
     0
 91
        4
 64
     7
 65
   257
 75
     1
175
     1
 42
1.0
 92
        8
 66
     7
 43
1.0
 76
     1
 77
     6
 78
     2
 67
     7
 79
     5
170
     0
171
     0
290
     0
174
     0
 93
        1
 44
0.0
173
     0
291
     1
 45
0.0
1001
ACAD
1000
AcDbSavedByObjectVersion
1070
     0
  0
VISUALSTYLE
  5
36
102
{ACAD_REACTORS
330
2A
102
}
102
{ACAD_XDICTIONARY
360
2DF
102
}
330
2A
100
AcDbVisualStyle
  2
Brighten
 70
    12
 71
     2
 72
     2
 73
     0
 90
        0
 40
-0.6
 41
-30.0
 62
     5
 63
     7
 74
     1
 91
        4
 64
     7
 65
   257
 75
     1
175
     1
 42
1.0
 92
        8
 66
     7
 43
1.0
 76
     1
 77
     6
 78
     2
 67
     7
 79
     5
170
     0
171
     0
290
     0
174
     0
 93
        1
 44
50.0
173
     0
291
     1
 45
0.0
1001
ACAD
1000
AcDbSavedByObjectVersion
1070
     0
  0
VISUALSTYLE
  5
3A
102
{ACAD_REACTORS
330
2A
102
}
102
{ACAD_XDICTIONARY
360
2E7
102
}
330
2A
100
AcDbVisualStyle
  2
ColorChange
 70
    16
 71
     2
 72
     2
 73
     3
 90
        0
 40
-0.6
 41
-30.0
 62
     5
 63
     8
 74
     1
 91
        4
 64
     7
 65
   257
 75
     1
175
     1
 42
1.0
 92
        8
 66
     8
 43
1.0
 76
     1
 77
     6
 78
     2
 67
     7
 79
     5
170
     0
171
     0
290
     0
174
     0
 93
        1
 44
0.0
173
     0
291
     1
 45
0.0
1001
ACAD
1000
AcDbSavedByObjectVersion
1070
     0
  0
VISUALSTYLE
  5
34
102
{ACAD_REACTORS
330
2A
102
}
102
{ACAD_XDICTIONARY
360
2DB
102
}
330
2A
100
AcDbVisualStyle
  2
Conceptual
 70
     9
 71
     3
 72
     2
 73
     0
 90
        0
 40
-0.6
 41
-30.0
 62
     5
 63
     7
 74
     2
 91
        2
 64
     7
 65
   257
 75
     1
175
     1
 42
40.0
 92
        8
 66
     7
 43
1.0
 76
     1
 77
     6
 78
     2
 67
     7
 79
     3
170
     0
171
     0
290
     0
174
     0
 93
        1
 44
0.0
173
     0
291
     0
 45
0.0
1001
ACAD
1000
AcDbSavedByObjectVersion
1070
     0
  0
VISUALSTYLE
  5
35
102
{ACAD_REACTORS
330
2A
102
}
102
{ACAD_XDICTIONARY
360
2DD
102
}
330
2A
100
AcDbVisualStyle
  2
Dim
 70
    11
 71
     2
 72
     2
 73
     0
 90
        0
 40
-0.6
 41
-30.0
 62
     5
 63
     7
 74
     1
 91
        4
 64
     7
 65
   257
 75
     1
175
     1
 42
1.0
 92
        8
 66
     7
 43
1.0
 76
     1
 77
     6
 78
     2
 67
     7
 79
     5
170
     0
171
     0
290
     0
174
     0
 93
        1
 44
-50.0
173
     0
291
     1
 45
0.0
1001
ACAD
1000
AcDbSavedByObjectVersion
1070
     0
  0
VISUALSTYLE
  5
39
102
{ACAD_REACTORS
330
2A
102
}
102
{ACAD_XDICTIONARY
360
2E5
102
}
330
2A
100
AcDbVisualStyle
  2
Facepattern
 70
    15
 71
     2
 72
     2
 73
     0
 90
        0
 40
-0.6
 41
-30.0
 62
     5
 63
     7
 74
     1
 91
        4
 64
     7
 65
   257
 75
     1
175
     1
 42
1.0
 92
        8
 66
     7
 43
1.0
 76
     1
 77
     6
 78
     2
 67
     7
 79
     5
170
     0
171
     0
290
     0
174
     0
 93
        1
 44
0.0
173
     0
291
     1
 45
0.0
1001
ACAD
1000
AcDbSavedByObjectVersion
1070
     0
  0
VISUALSTYLE
  5
2B
102
{ACAD_REACTORS
330
2A
102
}
102
{ACAD_XDICTIONARY
360
2C9
102
}
330
2A
100
AcDbVisualStyle
  2
Flat
 70
     0
 71
     2
 72
     1
 73
     1
 90
        2
 40
-0.6
 41
30.0
 62
     5
 63
     7
 74
     0
 91
        4
 64
     7
 65
   257
 75
     1
175
     1
 42
1.0
 92
        8
 66
     7
 43
1.0
 76
     1
 77
     6
 78
     2
 67
     7
 79
     5
170
     0
171
     0
290
     0
174
     0
 93
       13
 44
0.0
173
     0
291
     1
 45
0.0
1001
ACAD
1000
AcDbSavedByObjectVersion
1070
     0
  0
VISUALSTYLE
  5
2C
102
{ACAD_REACTORS
330
2A
102
}
102
{ACAD_XDICTIONARY
360
2CB
102
}
330
2A
100
AcDbVisualStyle
  2
FlatWithEdges
 70
     1
 71
     2
 72
     1
 73
     1
 90
        2
 40
-0.6
 41
30.0
 62
     5
 63
     7
 74
     1
 91
        4
 64
     7
 65
   257
 75
     1
175
     1
 42
1.0
 92
        0
 66
   257
 43
1.0
 76
     1
 77
     6
 78
     2
 67
     7
 79
     5
170
     0
171
     0
290
     0
174
     0
 93
       13
 44
0.0
173
     0
291
     1
 45
0.0
1001
ACAD
1000
AcDbSavedByObjectVersion
1070
     0
  0
VISUALSTYLE
  5
2D
102
{ACAD_REACTORS
330
2A
102
}
102
{ACAD_XDICTIONARY
360
2CD
102
}
330
2A
100
AcDbVisualStyle
  2
Gouraud
 70
     2
 71
     2
 72
     2
 73
     1
 90
        2
 40
-0.6
 41
30.0
 62
     5
 63
     7
 74
     0
 91
        4
 64
     7
 65
   257
 75
     1
175
     1
 42
1.0
 92
        0
 66
     7
 43
1.0
 76
     1
 77
     6
 78
     2
 67
     7
 79
     5
170
     0
171
     0
290
     0
174
     0
 93
       13
 44
0.0
173
     0
291
     1
 45
0.0
1001
ACAD
1000
AcDbSavedByObjectVersion
1070
     0
  0
VISUALSTYLE
  5
2E
102
{ACAD_REACTORS
330
2A
102
}
102
{ACAD_XDICTIONARY
360
2CF
102
}
330
2A
100
AcDbVisualStyle
  2
GouraudWithEdges
 70
     3
 71
     2
 72
     2
 73
     1
 90
        2
 40
-0.6
 41
30.0
 62
     5
 63
     7
 74
     1
 91
        4
 64
     7
 65
   257
 75
     1
175
     1
 42
1.0
 92
        0
 66
   257
 43
1.0
 76
     1
 77
     6
 78
     2
 67
     7
 79
     5
170
     0
171
     0
290
     0
174
     0
 93
       13
 44
0.0
173
     0
291
     1
 45
0.0
1001
ACAD
1000
AcDbSavedByObjectVersion
1070
     0
  0
VISUALSTYLE
  5
38
102
{ACAD_REACTORS
330
2A
102
}
102
{ACAD_XDICTIONARY
360
2E3
102
}
330
2A
100
AcDbVisualStyle
  2
Linepattern
 70
    14
 71
     2
 72
     2
 73
     0
 90
        0
 40
-0.6
 41
-30.0
 62
     5
 63
     7
 74
     1
 91
        4
 64
     7
 65
   257
 75
     7
175
     7
 42
1.0
 92
        8
 66
     7
 43
1.0
 76
     1
 77
     6
 78
     2
 67
     7
 79
     5
170
     0
171
     0
290
     0
174
     0
 93
        1
 44
0.0
173
     0
291
     1
 45
0.0
1001
ACAD
1000
AcDbSavedByObjectVersion
1070
     0
  0
VISUALSTYLE
  5
33
102
{ACAD_REACTORS
330
2A
102
}
102
{ACAD_XDICTIONARY
360
2D9
102
}
330
2A
100
AcDbVisualStyle
  2
Realistic
 70
     8
 71
     2
 72
     2
 73
     0
 90
        0
 40
-0.6
 41
-30.0
 62
     5
 63
     7
 74
     1
 91
        0
 64
     7
 65
   257
 75
     1
175
     1
 42
1.0
 92
        8
 66
     8
 43
1.0
 76
     1
 77
     6
 78
     2
 67
     7
 79
     5
170
     0
171
     0
290
     0
174
     0
 93
       13
 44
0.0
173
     0
291
     0
 45
0.0
1001
ACAD
1000
AcDbSavedByObjectVersion
1070
     0
  0
VISUALSTYLE
  5
37
102
{ACAD_REACTORS
330
2A
102
}
102
{ACAD_XDICTIONARY
360
2E1
102
}
330
2A
100
AcDbVisualStyle
  2
Thicken
 70
    13
 71
     2
 72
     2
 73
     0
 90
        0
 40
-0.6
 41
-30.0
 62
     5
 63
     7
 74
     1
 91
        4
 64
     7
 65
   257
 75
     1
175
     1
 42
1.0
 92
       12
 66
     7
 43
1.0
 76
     1
 77
     6
 78
     2
 67
     7
 79
     5
170
     0
171
     0
290
     0
174
     0
 93
        1
 44
0.0
173
     0
291
     1
 45
0.0
1001
ACAD
1000
AcDbSavedByObjectVersion
1070
     0
  0
DICTIONARYVAR
  5
2C7
102
{ACAD_REACTORS
330
2C4
102
}
330
2C4
100
DictionaryVariables
280
     0
  1
2
  0
DICTIONARYVAR
  5
2C8
102
{ACAD_REACTORS
330
2C4
102
}
330
2C4
100
DictionaryVariables
280
     0
  1
1
  0
DICTIONARY
  5
2EB
330
3D
100
AcDbDictionary
280
     1
281
     1
  3
ACAD_XREC_ROUNDTRIP
360
2EC
  0
DICTIONARY
  5
2E9
330
3C
100
AcDbDictionary
280
     1
281
     1
  3
ACAD_XREC_ROUNDTRIP
360
2EA
  0
DICTIONARY
  5
2ED
330
3E
100
AcDbDictionary
280
     1
281
     1
  3
ACAD_XREC_ROUNDTRIP
360
2EE
  0
DICTIONARY
  5
2D1
330
2F
100
AcDbDictionary
280
     1
281
     1
  3
ACAD_XREC_ROUNDTRIP
360
2D2
  0
DICTIONARY
  5
2D5
330
31
100
AcDbDictionary
280
     1
281
     1
  3
ACAD_XREC_ROUNDTRIP
360
2D6
  0
DICTIONARY
  5
2D3
330
30
100
AcDbDictionary
280
     1
281
     1
  3
ACAD_XREC_ROUNDTRIP
360
2D4
  0
DICTIONARY
  5
2D7
330
32
100
AcDbDictionary
280
     1
281
     1
  3
ACAD_XREC_ROUNDTRIP
360
2D8
  0
DICTIONARY
  5
2DF
330
36
100
AcDbDictionary
280
     1
281
     1
  3
ACAD_XREC_ROUNDTRIP
360
2E0
  0
DICTIONARY
  5
2E7
330
3A
100
AcDbDictionary
280
     1
281
     1
  3
ACAD_XREC_ROUNDTRIP
360
2E8
  0
DICTIONARY
  5
2DB
330
34
100
AcDbDictionary
280
     1
281
     1
  3
ACAD_XREC_ROUNDTRIP
360
2DC
  0
DICTIONARY
  5
2DD
330
35
100
AcDbDictionary
280
     1
281
     1
  3
ACAD_XREC_ROUNDTRIP
360
2DE
  0
DICTIONARY
  5
2E5
330
39
100
AcDbDictionary
280
     1
281
     1
  3
ACAD_XREC_ROUNDTRIP
360
2E6
  0
DICTIONARY
  5
2C9
330
2B
100
AcDbDictionary
280
     1
281
     1
  3
ACAD_XREC_ROUNDTRIP
360
2CA
  0
DICTIONARY
  5
2CB
330
2C
100
AcDbDictionary
280
     1
281
     1
  3
ACAD_XREC_ROUNDTRIP
360
2CC
  0
DICTIONARY
  5
2CD
330
2D
100
AcDbDictionary
280
     1
281
     1
  3
ACAD_XREC_ROUNDTRIP
360
2CE
  0
DICTIONARY
  5
2CF
330
2E
100
AcDbDictionary
280
     1
281
     1
  3
ACAD_XREC_ROUNDTRIP
360
2D0
  0
DICTIONARY
  5
2E3
330
38
100
AcDbDictionary
280
     1
281
     1
  3
ACAD_XREC_ROUNDTRIP
360
2E4
  0
DICTIONARY
  5
2D9
330
33
100
AcDbDictionary
280
     1
281
     1
  3
ACAD_XREC_ROUNDTRIP
360
2DA
  0
DICTIONARY
  5
2E1
330
37
100
AcDbDictionary
280
     1
281
     1
  3
ACAD_XREC_ROUNDTRIP
360
2E2
  0
XRECORD
  5
2EC
102
{ACAD_REACTORS
330
2EB
102
}
330
2EB
100
AcDbXrecord
280
     1
102
MATERIAL
148
0.0
149
0.0
149
0.0
 93
        0
 94
      127
282
     0
 72
     1
 77
     1
171
     1
175
     1
179
     1
273
     0
  0
XRECORD
  5
2EA
102
{ACAD_REACTORS
330
2E9
102
}
330
2E9
100
AcDbXrecord
280
     1
102
MATERIAL
148
0.0
149
0.0
149
0.0
 93
        0
 94
      127
282
     0
 72
     1
 77
     1
171
     1
175
     1
179
     1
273
     0
  0
XRECORD
  5
2EE
102
{ACAD_REACTORS
330
2ED
102
}
330
2ED
100
AcDbXrecord
280
     1
102
MATERIAL
148
0.0
149
0.0
149
0.0
 93
        0
 94
      127
282
     0
 72
     1
 77
     1
171
     1
175
     1
179
     1
273
     0
  0
XRECORD
  5
2D2
102
{ACAD_REACTORS
330
2D1
102
}
330
2D1
100
AcDbXrecord
280
     1
102
RTVSPropertyOp0
 70
     1
102
RTVSPropertyOp1
 70
     1
102
RTVSPropertyOp2
 70
     1
102
RTVSPropertyOp3
 70
     1
102
RTVSPropertyOp4
 70
     1
102
RTVSPropertyOp5
 70
     1
102
RTVSPropertyOp6
 70
     1
102
RTVSPropertyOp7
 70
     1
102
RTVSPropertyOp8
 70
     1
102
RTVSPropertyOp9
 70
     1
102
RTVSPropertyOp10
 70
     1
102
RTVSPropertyOp11
 70
     1
102
RTVSPropertyOp12
 70
     1
102
RTVSPropertyOp13
 70
     1
102
RTVSPropertyOp14
 70
     1
102
RTVSPropertyOp15
 70
     1
102
RTVSPropertyOp16
 70
     1
102
RTVSPropertyOp17
 70
     1
102
RTVSPropertyOp18
 70
     1
102
RTVSPropertyOp19
 70
     1
102
RTVSPropertyOp20
 70
     1
102
RTVSPropertyOp21
 70
     1
102
RTVSPropertyOp22
 70
     1
102
RTVSPropertyOp23
 70
     1
102
RTVSPropertyOp24
 70
     1
102
RTVSPropertyOp25
 70
     1
102
RTVSPropertyOp26
 70
     1
102
RTVSPropertyOp27
 70
     1
102
RTVSPropertyOp28
 70
     1
102
RTVSPropertyOp29
 70
     1
102
RTVSPropertyOp30
 70
     1
102
RTVSPropertyOp31
 70
     1
102
RTVSPropertyOp32
 70
     1
  0
XRECORD
  5
2D6
102
{ACAD_REACTORS
330
2D5
102
}
330
2D5
100
AcDbXrecord
280
     1
102
RTVSPropertyOp0
 70
     1
102
RTVSPropertyOp1
 70
     1
102
RTVSPropertyOp2
 70
     1
102
RTVSPropertyOp3
 70
     1
102
RTVSPropertyOp4
 70
     1
102
RTVSPropertyOp5
 70
     1
102
RTVSPropertyOp6
 70
     1
102
RTVSPropertyOp7
 70
     1
102
RTVSPropertyOp8
 70
     1
102
RTVSPropertyOp9
 70
     1
102
RTVSPropertyOp10
 70
     1
102
RTVSPropertyOp11
 70
     1
102
RTVSPropertyOp12
 70
     1
102
RTVSPropertyOp13
 70
     1
102
RTVSPropertyOp14
 70
     1
102
RTVSPropertyOp15
 70
     1
102
RTVSPropertyOp16
 70
     1
102
RTVSPropertyOp17
 70
     1
102
RTVSPropertyOp18
 70
     1
102
RTVSPropertyOp19
 70
     1
102
RTVSPropertyOp20
 70
     1
102
RTVSPropertyOp21
 70
     1
102
RTVSPropertyOp22
 70
     1
102
RTVSPropertyOp23
 70
     1
102
RTVSPropertyOp24
 70
     1
102
RTVSPropertyOp25
 70
     1
102
RTVSPropertyOp26
 70
     1
102
RTVSPropertyOp27
 70
     1
102
RTVSPropertyOp28
 70
     1
102
RTVSPropertyOp29
 70
     1
102
RTVSPropertyOp30
 70
     1
102
RTVSPropertyOp31
 70
     1
102
RTVSPropertyOp32
 70
     1
  0
XRECORD
  5
2D4
102
{ACAD_REACTORS
330
2D3
102
}
330
2D3
100
AcDbXrecord
280
     1
102
RTVSPropertyOp0
 70
     1
102
RTVSPropertyOp1
 70
     1
102
RTVSPropertyOp2
 70
     1
102
RTVSPropertyOp3
 70
     1
102
RTVSPropertyOp4
 70
     1
102
RTVSPropertyOp5
 70
     1
102
RTVSPropertyOp6
 70
     1
102
RTVSPropertyOp7
 70
     1
102
RTVSPropertyOp8
 70
     1
102
RTVSPropertyOp9
 70
     1
102
RTVSPropertyOp10
 70
     1
102
RTVSPropertyOp11
 70
     1
102
RTVSPropertyOp12
 70
     1
102
RTVSPropertyOp13
 70
     1
102
RTVSPropertyOp14
 70
     1
102
RTVSPropertyOp15
 70
     1
102
RTVSPropertyOp16
 70
     1
102
RTVSPropertyOp17
 70
     1
102
RTVSPropertyOp18
 70
     1
102
RTVSPropertyOp19
 70
     1
102
RTVSPropertyOp20
 70
     1
102
RTVSPropertyOp21
 70
     1
102
RTVSPropertyOp22
 70
     1
102
RTVSPropertyOp23
 70
     1
102
RTVSPropertyOp24
 70
     1
102
RTVSPropertyOp25
 70
     1
102
RTVSPropertyOp26
 70
     1
102
RTVSPropertyOp27
 70
     1
102
RTVSPropertyOp28
 70
     1
102
RTVSPropertyOp29
 70
     1
102
RTVSPropertyOp30
 70
     1
102
RTVSPropertyOp31
 70
     1
102
RTVSPropertyOp32
 70
     1
  0
XRECORD
  5
2D8
102
{ACAD_REACTORS
330
2D7
102
}
330
2D7
100
AcDbXrecord
280
     1
102
RTVSPropertyOp0
 70
     1
102
RTVSPropertyOp1
 70
     1
102
RTVSPropertyOp2
 70
     1
102
RTVSPropertyOp3
 70
     1
102
RTVSPropertyOp4
 70
     1
102
RTVSPropertyOp5
 70
     1
102
RTVSPropertyOp6
 70
     1
102
RTVSPropertyOp7
 70
     1
102
RTVSPropertyOp8
 70
     1
102
RTVSPropertyOp9
 70
     1
102
RTVSPropertyOp10
 70
     1
102
RTVSPropertyOp11
 70
     1
102
RTVSPropertyOp12
 70
     1
102
RTVSPropertyOp13
 70
     1
102
RTVSPropertyOp14
 70
     1
102
RTVSPropertyOp15
 70
     1
102
RTVSPropertyOp16
 70
     1
102
RTVSPropertyOp17
 70
     1
102
RTVSPropertyOp18
 70
     1
102
RTVSPropertyOp19
 70
     1
102
RTVSPropertyOp20
 70
     1
102
RTVSPropertyOp21
 70
     1
102
RTVSPropertyOp22
 70
     1
102
RTVSPropertyOp23
 70
     1
102
RTVSPropertyOp24
 70
     1
102
RTVSPropertyOp25
 70
     1
102
RTVSPropertyOp26
 70
     1
102
RTVSPropertyOp27
 70
     1
102
RTVSPropertyOp28
 70
     1
102
RTVSPropertyOp29
 70
     1
102
RTVSPropertyOp30
 70
     1
102
RTVSPropertyOp31
 70
     1
102
RTVSPropertyOp32
 70
     1
  0
XRECORD
  5
2E0
102
{ACAD_REACTORS
330
2DF
102
}
330
2DF
100
AcDbXrecord
280
     1
102
RTVSPropertyOp0
 70
     1
102
RTVSPropertyOp1
 70
     1
102
RTVSPropertyOp2
 70
     1
102
RTVSPropertyOp3
 70
     1
102
RTVSPropertyOp4
 70
     1
102
RTVSPropertyOp5
 70
     1
102
RTVSPropertyOp6
 70
     1
102
RTVSPropertyOp7
 70
     1
102
RTVSPropertyOp8
 70
     1
102
RTVSPropertyOp9
 70
     1
102
RTVSPropertyOp10
 70
     1
102
RTVSPropertyOp11
 70
     1
102
RTVSPropertyOp12
 70
     1
102
RTVSPropertyOp13
 70
     1
102
RTVSPropertyOp14
 70
     1
102
RTVSPropertyOp15
 70
     1
102
RTVSPropertyOp16
 70
     1
102
RTVSPropertyOp17
 70
     1
102
RTVSPropertyOp18
 70
     1
102
RTVSPropertyOp19
 70
     1
102
RTVSPropertyOp20
 70
     1
102
RTVSPropertyOp21
 70
     1
102
RTVSPropertyOp22
 70
     1
102
RTVSPropertyOp23
 70
     1
102
RTVSPropertyOp24
 70
     1
102
RTVSPropertyOp25
 70
     1
102
RTVSPropertyOp26
 70
     1
102
RTVSPropertyOp27
 70
     1
102
RTVSPropertyOp28
 70
     1
102
RTVSPropertyOp29
 70
     1
102
RTVSPropertyOp30
 70
     1
102
RTVSPropertyOp31
 70
     1
102
RTVSPropertyOp32
 70
     1
  0
XRECORD
  5
2E8
102
{ACAD_REACTORS
330
2E7
102
}
330
2E7
100
AcDbXrecord
280
     1
102
RTVSPropertyOp0
 70
     1
102
RTVSPropertyOp1
 70
     1
102
RTVSPropertyOp2
 70
     1
102
RTVSPropertyOp3
 70
     1
102
RTVSPropertyOp4
 70
     1
102
RTVSPropertyOp5
 70
     1
102
RTVSPropertyOp6
 70
     1
102
RTVSPropertyOp7
 70
     1
102
RTVSPropertyOp8
 70
     1
102
RTVSPropertyOp9
 70
     1
102
RTVSPropertyOp10
 70
     1
102
RTVSPropertyOp11
 70
     1
102
RTVSPropertyOp12
 70
     1
102
RTVSPropertyOp13
 70
     1
102
RTVSPropertyOp14
 70
     1
102
RTVSPropertyOp15
 70
     1
102
RTVSPropertyOp16
 70
     1
102
RTVSPropertyOp17
 70
     1
102
RTVSPropertyOp18
 70
     1
102
RTVSPropertyOp19
 70
     1
102
RTVSPropertyOp20
 70
     1
102
RTVSPropertyOp21
 70
     1
102
RTVSPropertyOp22
 70
     1
102
RTVSPropertyOp23
 70
     1
102
RTVSPropertyOp24
 70
     1
102
RTVSPropertyOp25
 70
     1
102
RTVSPropertyOp26
 70
     1
102
RTVSPropertyOp27
 70
     1
102
RTVSPropertyOp28
 70
     1
102
RTVSPropertyOp29
 70
     1
102
RTVSPropertyOp30
 70
     1
102
RTVSPropertyOp31
 70
     1
102
RTVSPropertyOp32
 70
     1
  0
XRECORD
  5
2DC
102
{ACAD_REACTORS
330
2DB
102
}
330
2DB
100
AcDbXrecord
280
     1
102
RTVSPropertyOp0
 70
     1
102
RTVSPropertyOp1
 70
     1
102
RTVSPropertyOp2
 70
     1
102
RTVSPropertyOp3
 70
     1
102
RTVSPropertyOp4
 70
     1
102
RTVSPropertyOp5
 70
     1
102
RTVSPropertyOp6
 70
     1
102
RTVSPropertyOp7
 70
     1
102
RTVSPropertyOp8
 70
     1
102
RTVSPropertyOp9
 70
     1
102
RTVSPropertyOp10
 70
     1
102
RTVSPropertyOp11
 70
     1
102
RTVSPropertyOp12
 70
     1
102
RTVSPropertyOp13
 70
     1
102
RTVSPropertyOp14
 70
     1
102
RTVSPropertyOp15
 70
     1
102
RTVSPropertyOp16
 70
     1
102
RTVSPropertyOp17
 70
     1
102
RTVSPropertyOp18
 70
     1
102
RTVSPropertyOp19
 70
     1
102
RTVSPropertyOp20
 70
     1
102
RTVSPropertyOp21
 70
     1
102
RTVSPropertyOp22
 70
     1
102
RTVSPropertyOp23
 70
     1
102
RTVSPropertyOp24
 70
     1
102
RTVSPropertyOp25
 70
     1
102
RTVSPropertyOp26
 70
     1
102
RTVSPropertyOp27
 70
     1
102
RTVSPropertyOp28
 70
     1
102
RTVSPropertyOp29
 70
     1
102
RTVSPropertyOp30
 70
     1
102
RTVSPropertyOp31
 70
     1
102
RTVSPropertyOp32
 70
     1
  0
XRECORD
  5
2DE
102
{ACAD_REACTORS
330
2DD
102
}
330
2DD
100
AcDbXrecord
280
     1
102
RTVSPropertyOp0
 70
     1
102
RTVSPropertyOp1
 70
     1
102
RTVSPropertyOp2
 70
     1
102
RTVSPropertyOp3
 70
     1
102
RTVSPropertyOp4
 70
     1
102
RTVSPropertyOp5
 70
     1
102
RTVSPropertyOp6
 70
     1
102
RTVSPropertyOp7
 70
     1
102
RTVSPropertyOp8
 70
     1
102
RTVSPropertyOp9
 70
     1
102
RTVSPropertyOp10
 70
     1
102
RTVSPropertyOp11
 70
     1
102
RTVSPropertyOp12
 70
     1
102
RTVSPropertyOp13
 70
     1
102
RTVSPropertyOp14
 70
     1
102
RTVSPropertyOp15
 70
     1
102
RTVSPropertyOp16
 70
     1
102
RTVSPropertyOp17
 70
     1
102
RTVSPropertyOp18
 70
     1
102
RTVSPropertyOp19
 70
     1
102
RTVSPropertyOp20
 70
     1
102
RTVSPropertyOp21
 70
     1
102
RTVSPropertyOp22
 70
     1
102
RTVSPropertyOp23
 70
     1
102
RTVSPropertyOp24
 70
     1
102
RTVSPropertyOp25
 70
     1
102
RTVSPropertyOp26
 70
     1
102
RTVSPropertyOp27
 70
     1
102
RTVSPropertyOp28
 70
     1
102
RTVSPropertyOp29
 70
     1
102
RTVSPropertyOp30
 70
     1
102
RTVSPropertyOp31
 70
     1
102
RTVSPropertyOp32
 70
     1
  0
XRECORD
  5
2E6
102
{ACAD_REACTORS
330
2E5
102
}
330
2E5
100
AcDbXrecord
280
     1
102
RTVSPropertyOp0
 70
     1
102
RTVSPropertyOp1
 70
     1
102
RTVSPropertyOp2
 70
     1
102
RTVSPropertyOp3
 70
     1
102
RTVSPropertyOp4
 70
     1
102
RTVSPropertyOp5
 70
     1
102
RTVSPropertyOp6
 70
     1
102
RTVSPropertyOp7
 70
     1
102
RTVSPropertyOp8
 70
     1
102
RTVSPropertyOp9
 70
     1
102
RTVSPropertyOp10
 70
     1
102
RTVSPropertyOp11
 70
     1
102
RTVSPropertyOp12
 70
     1
102
RTVSPropertyOp13
 70
     1
102
RTVSPropertyOp14
 70
     1
102
RTVSPropertyOp15
 70
     1
102
RTVSPropertyOp16
 70
     1
102
RTVSPropertyOp17
 70
     1
102
RTVSPropertyOp18
 70
     1
102
RTVSPropertyOp19
 70
     1
102
RTVSPropertyOp20
 70
     1
102
RTVSPropertyOp21
 70
     1
102
RTVSPropertyOp22
 70
     1
102
RTVSPropertyOp23
 70
     1
102
RTVSPropertyOp24
 70
     1
102
RTVSPropertyOp25
 70
     1
102
RTVSPropertyOp26
 70
     1
102
RTVSPropertyOp27
 70
     1
102
RTVSPropertyOp28
 70
     1
102
RTVSPropertyOp29
 70
     1
102
RTVSPropertyOp30
 70
     1
102
RTVSPropertyOp31
 70
     1
102
RTVSPropertyOp32
 70
     1
  0
XRECORD
  5
2CA
102
{ACAD_REACTORS
330
2C9
102
}
330
2C9
100
AcDbXrecord
280
     1
102
RTVSPropertyOp0
 70
     1
102
RTVSPropertyOp1
 70
     1
102
RTVSPropertyOp2
 70
     1
102
RTVSPropertyOp3
 70
     1
102
RTVSPropertyOp4
 70
     1
102
RTVSPropertyOp5
 70
     1
102
RTVSPropertyOp6
 70
     1
102
RTVSPropertyOp7
 70
     1
102
RTVSPropertyOp8
 70
     1
102
RTVSPropertyOp9
 70
     1
102
RTVSPropertyOp10
 70
     1
102
RTVSPropertyOp11
 70
     1
102
RTVSPropertyOp12
 70
     1
102
RTVSPropertyOp13
 70
     1
102
RTVSPropertyOp14
 70
     1
102
RTVSPropertyOp15
 70
     1
102
RTVSPropertyOp16
 70
     1
102
RTVSPropertyOp17
 70
     1
102
RTVSPropertyOp18
 70
     1
102
RTVSPropertyOp19
 70
     1
102
RTVSPropertyOp20
 70
     1
102
RTVSPropertyOp21
 70
     1
102
RTVSPropertyOp22
 70
     1
102
RTVSPropertyOp23
 70
     1
102
RTVSPropertyOp24
 70
     1
102
RTVSPropertyOp25
 70
     1
102
RTVSPropertyOp26
 70
     1
102
RTVSPropertyOp27
 70
     1
102
RTVSPropertyOp28
 70
     1
102
RTVSPropertyOp29
 70
     1
102
RTVSPropertyOp30
 70
     1
102
RTVSPropertyOp31
 70
     1
102
RTVSPropertyOp32
 70
     1
  0
XRECORD
  5
2CC
102
{ACAD_REACTORS
330
2CB
102
}
330
2CB
100
AcDbXrecord
280
     1
102
RTVSPropertyOp0
 70
     1
102
RTVSPropertyOp1
 70
     1
102
RTVSPropertyOp2
 70
     1
102
RTVSPropertyOp3
 70
     1
102
RTVSPropertyOp4
 70
     1
102
RTVSPropertyOp5
 70
     1
102
RTVSPropertyOp6
 70
     1
102
RTVSPropertyOp7
 70
     1
102
RTVSPropertyOp8
 70
     1
102
RTVSPropertyOp9
 70
     1
102
RTVSPropertyOp10
 70
     1
102
RTVSPropertyOp11
 70
     1
102
RTVSPropertyOp12
 70
     1
102
RTVSPropertyOp13
 70
     1
102
RTVSPropertyOp14
 70
     1
102
RTVSPropertyOp15
 70
     1
102
RTVSPropertyOp16
 70
     1
102
RTVSPropertyOp17
 70
     1
102
RTVSPropertyOp18
 70
     1
102
RTVSPropertyOp19
 70
     1
102
RTVSPropertyOp20
 70
     1
102
RTVSPropertyOp21
 70
     1
102
RTVSPropertyOp22
 70
     1
102
RTVSPropertyOp23
 70
     1
102
RTVSPropertyOp24
 70
     1
102
RTVSPropertyOp25
 70
     1
102
RTVSPropertyOp26
 70
     1
102
RTVSPropertyOp27
 70
     1
102
RTVSPropertyOp28
 70
     1
102
RTVSPropertyOp29
 70
     1
102
RTVSPropertyOp30
 70
     1
102
RTVSPropertyOp31
 70
     1
102
RTVSPropertyOp32
 70
     1
  0
XRECORD
  5
2CE
102
{ACAD_REACTORS
330
2CD
102
}
330
2CD
100
AcDbXrecord
280
     1
102
RTVSPropertyOp0
 70
     1
102
RTVSPropertyOp1
 70
     1
102
RTVSPropertyOp2
 70
     1
102
RTVSPropertyOp3
 70
     1
102
RTVSPropertyOp4
 70
     1
102
RTVSPropertyOp5
 70
     1
102
RTVSPropertyOp6
 70
     1
102
RTVSPropertyOp7
 70
     1
102
RTVSPropertyOp8
 70
     1
102
RTVSPropertyOp9
 70
     1
102
RTVSPropertyOp10
 70
     1
102
RTVSPropertyOp11
 70
     1
102
RTVSPropertyOp12
 70
     1
102
RTVSPropertyOp13
 70
     1
102
RTVSPropertyOp14
 70
     1
102
RTVSPropertyOp15
 70
     1
102
RTVSPropertyOp16
 70
     1
102
RTVSPropertyOp17
 70
     1
102
RTVSPropertyOp18
 70
     1
102
RTVSPropertyOp19
 70
     1
102
RTVSPropertyOp20
 70
     1
102
RTVSPropertyOp21
 70
     1
102
RTVSPropertyOp22
 70
     1
102
RTVSPropertyOp23
 70
     1
102
RTVSPropertyOp24
 70
     1
102
RTVSPropertyOp25
 70
     1
102
RTVSPropertyOp26
 70
     1
102
RTVSPropertyOp27
 70
     1
102
RTVSPropertyOp28
 70
     1
102
RTVSPropertyOp29
 70
     1
102
RTVSPropertyOp30
 70
     1
102
RTVSPropertyOp31
 70
     1
102
RTVSPropertyOp32
 70
     1
  0
XRECORD
  5
2D0
102
{ACAD_REACTORS
330
2CF
102
}
330
2CF
100
AcDbXrecord
280
     1
102
RTVSPropertyOp0
 70
     1
102
RTVSPropertyOp1
 70
     1
102
RTVSPropertyOp2
 70
     1
102
RTVSPropertyOp3
 70
     1
102
RTVSPropertyOp4
 70
     1
102
RTVSPropertyOp5
 70
     1
102
RTVSPropertyOp6
 70
     1
102
RTVSPropertyOp7
 70
     1
102
RTVSPropertyOp8
 70
     1
102
RTVSPropertyOp9
 70
     1
102
RTVSPropertyOp10
 70
     1
102
RTVSPropertyOp11
 70
     1
102
RTVSPropertyOp12
 70
     1
102
RTVSPropertyOp13
 70
     1
102
RTVSPropertyOp14
 70
     1
102
RTVSPropertyOp15
 70
     1
102
RTVSPropertyOp16
 70
     1
102
RTVSPropertyOp17
 70
     1
102
RTVSPropertyOp18
 70
     1
102
RTVSPropertyOp19
 70
     1
102
RTVSPropertyOp20
 70
     1
102
RTVSPropertyOp21
 70
     1
102
RTVSPropertyOp22
 70
     1
102
RTVSPropertyOp23
 70
     1
102
RTVSPropertyOp24
 70
     1
102
RTVSPropertyOp25
 70
     1
102
RTVSPropertyOp26
 70
     1
102
RTVSPropertyOp27
 70
     1
102
RTVSPropertyOp28
 70
     1
102
RTVSPropertyOp29
 70
     1
102
RTVSPropertyOp30
 70
     1
102
RTVSPropertyOp31
 70
     1
102
RTVSPropertyOp32
 70
     1
  0
XRECORD
  5
2E4
102
{ACAD_REACTORS
330
2E3
102
}
330
2E3
100
AcDbXrecord
280
     1
102
RTVSPropertyOp0
 70
     1
102
RTVSPropertyOp1
 70
     1
102
RTVSPropertyOp2
 70
     1
102
RTVSPropertyOp3
 70
     1
102
RTVSPropertyOp4
 70
     1
102
RTVSPropertyOp5
 70
     1
102
RTVSPropertyOp6
 70
     1
102
RTVSPropertyOp7
 70
     1
102
RTVSPropertyOp8
 70
     1
102
RTVSPropertyOp9
 70
     1
102
RTVSPropertyOp10
 70
     1
102
RTVSPropertyOp11
 70
     1
102
RTVSPropertyOp12
 70
     1
102
RTVSPropertyOp13
 70
     1
102
RTVSPropertyOp14
 70
     1
102
RTVSPropertyOp15
 70
     1
102
RTVSPropertyOp16
 70
     1
102
RTVSPropertyOp17
 70
     1
102
RTVSPropertyOp18
 70
     1
102
RTVSPropertyOp19
 70
     1
102
RTVSPropertyOp20
 70
     1
102
RTVSPropertyOp21
 70
     1
102
RTVSPropertyOp22
 70
     1
102
RTVSPropertyOp23
 70
     1
102
RTVSPropertyOp24
 70
     1
102
RTVSPropertyOp25
 70
     1
102
RTVSPropertyOp26
 70
     1
102
RTVSPropertyOp27
 70
     1
102
RTVSPropertyOp28
 70
     1
102
RTVSPropertyOp29
 70
     1
102
RTVSPropertyOp30
 70
     1
102
RTVSPropertyOp31
 70
     1
102
RTVSPropertyOp32
 70
     1
  0
XRECORD
  5
2DA
102
{ACAD_REACTORS
330
2D9
102
}
330
2D9
100
AcDbXrecord
280
     1
102
RTVSPropertyOp0
 70
     1
102
RTVSPropertyOp1
 70
     1
102
RTVSPropertyOp2
 70
     1
102
RTVSPropertyOp3
 70
     1
102
RTVSPropertyOp4
 70
     1
102
RTVSPropertyOp5
 70
     1
102
RTVSPropertyOp6
 70
     1
102
RTVSPropertyOp7
 70
     1
102
RTVSPropertyOp8
 70
     1
102
RTVSPropertyOp9
 70
     1
102
RTVSPropertyOp10
 70
     1
102
RTVSPropertyOp11
 70
     1
102
RTVSPropertyOp12
 70
     1
102
RTVSPropertyOp13
 70
     1
102
RTVSPropertyOp14
 70
     1
102
RTVSPropertyOp15
 70
     1
102
RTVSPropertyOp16
 70
     1
102
RTVSPropertyOp17
 70
     1
102
RTVSPropertyOp18
 70
     1
102
RTVSPropertyOp19
 70
     1
102
RTVSPropertyOp20
 70
     1
102
RTVSPropertyOp21
 70
     1
102
RTVSPropertyOp22
 70
     1
102
RTVSPropertyOp23
 70
     1
102
RTVSPropertyOp24
 70
     1
102
RTVSPropertyOp25
 70
     1
102
RTVSPropertyOp26
 70
     1
102
RTVSPropertyOp27
 70
     1
102
RTVSPropertyOp28
 70
     1
102
RTVSPropertyOp29
 70
     1
102
RTVSPropertyOp30
 70
     1
102
RTVSPropertyOp31
 70
     1
102
RTVSPropertyOp32
 70
     1
  0
XRECORD
  5
2E2
102
{ACAD_REACTORS
330
2E1
102
}
330
2E1
100
AcDbXrecord
280
     1
102
RTVSPropertyOp0
 70
     1
102
RTVSPropertyOp1
 70
     1
102
RTVSPropertyOp2
 70
     1
102
RTVSPropertyOp3
 70
     1
102
RTVSPropertyOp4
 70
     1
102
RTVSPropertyOp5
 70
     1
102
RTVSPropertyOp6
 70
     1
102
RTVSPropertyOp7
 70
     1
102
RTVSPropertyOp8
 70
     1
102
RTVSPropertyOp9
 70
     1
102
RTVSPropertyOp10
 70
     1
102
RTVSPropertyOp11
 70
     1
102
RTVSPropertyOp12
 70
     1
102
RTVSPropertyOp13
 70
     1
102
RTVSPropertyOp14
 70
     1
102
RTVSPropertyOp15
 70
     1
102
RTVSPropertyOp16
 70
     1
102
RTVSPropertyOp17
 70
     1
102
RTVSPropertyOp18
 70
     1
102
RTVSPropertyOp19
 70
     1
102
RTVSPropertyOp20
 70
     1
102
RTVSPropertyOp21
 70
     1
102
RTVSPropertyOp22
 70
     1
102
RTVSPropertyOp23
 70
     1
102
RTVSPropertyOp24
 70
     1
102
RTVSPropertyOp25
 70
     1
102
RTVSPropertyOp26
 70
     1
102
RTVSPropertyOp27
 70
     1
102
RTVSPropertyOp28
 70
     1
102
RTVSPropertyOp29
 70
     1
102
RTVSPropertyOp30
 70
     1
102
RTVSPropertyOp31
 70
     1
102
RTVSPropertyOp32
 70
     1
  0
ENDSEC
  0
EOF
